<?xml version="1.0" standalone="no"?>
<!DOCTYPE svg PUBLIC "-//W3C//DTD SVG 1.1//EN" "http://www.w3.org/Graphics/SVG/1.1/DTD/svg11.dtd" >
<svg xmlns="http://www.w3.org/2000/svg">
<metadata>Generated by IcoMoon</metadata>
<defs>
<font id="icomoon" horiz-adv-x="1024">
<font-face units-per-em="1024" ascent="960" descent="-64" />
<missing-glyph horiz-adv-x="1024" />
<glyph unicode="&#x20;" horiz-adv-x="512" d="" />
<glyph unicode="&#xe900;" glyph-name="user-fill_14" d="M767.872 192h-511.787l-0.085 26.581c0 53.717 4.267 84.736 67.755 99.413 71.851 16.597 142.677 31.403 108.587 94.251-100.949 186.155-28.757 291.755 79.616 291.755 106.283 0 180.309-101.675 79.616-291.797-33.067-62.464 35.243-77.312 108.587-94.251 63.573-14.677 67.797-45.739 67.797-99.541l-0.085-26.411zM973.141 286.464c-55.040 12.715-106.24 23.851-81.451 70.699 75.477 142.592 20.011 218.837-59.733 218.837-53.973 0-95.915-34.859-95.915-99.157 0-166.528 96.768-75.52 95.829-284.843h192.043l0.085 19.755c0 40.363-3.157 63.701-50.859 74.709zM0.085 192h192.043c-0.896 209.323 95.829 118.272 95.829 284.843 0 64.299-41.941 99.157-95.915 99.157-79.744 0-135.211-76.245-59.691-218.837 24.789-46.891-26.411-57.984-81.451-70.699-47.744-11.008-50.901-34.347-50.901-74.709l0.085-19.755z" />
<glyph unicode="&#xe901;" glyph-name="user-fill_01" d="M888.405 187.904c-146.731 33.877-283.307 63.573-217.173 188.501 201.387 380.245 53.376 583.595-159.232 583.595-216.832 0-361.131-211.157-159.232-583.595 68.139-125.653-73.6-155.349-217.173-188.501-131.115-30.293-136.021-95.403-135.595-209.237l0.171-42.667h1023.573l0.171 41.344c0.512 114.688-3.925 180.139-135.509 210.56z" />
<glyph unicode="&#xe902;" glyph-name="user-fill_06" d="M888.405 187.904c-146.731 33.877-283.349 63.573-217.173 188.501 201.344 380.245 53.376 583.595-159.232 583.595-216.789 0-361.131-211.157-159.232-583.595 68.139-125.653-73.6-155.349-217.173-188.501-127.104-29.355-135.595-91.435-135.595-198.955l0.213-52.949h447.275l30.037 128h68.907l30.037-128h447.275l0.213 52.949c0.043 107.52-8.448 169.6-135.552 198.955zM537.216 106.667h-49.664l-38.827 85.333h127.744l-39.253-85.333z" />
<glyph unicode="&#xe903;" glyph-name="user-bold_09" d="M1023.787-64h-85.12c0 132.437 5.077 151.467-75.136 170.069-122.752 28.331-238.677 55.083-280.917 147.541-15.403 33.749-25.643 89.387 13.227 162.731 87.125 164.565 108.971 305.707 59.861 387.243-57.216 95.104-230.955 95.616-288.683-1.451-49.237-82.645-27.093-223.019 60.757-385.067 39.68-73.045 29.739-128.853 14.421-162.773-41.899-92.928-156.8-119.424-278.4-147.456-83.797-19.371-78.464-37.12-78.464-170.837h-85.12l-0.213 52.949c0 107.52 8.491 169.6 135.595 198.955 143.573 33.152 285.355 62.848 217.173 188.501-201.941 372.437-57.6 583.595 159.232 583.595 212.608 0 360.576-203.349 159.232-583.595-66.176-124.928 70.4-154.624 217.173-188.501 127.104-29.355 135.595-91.435 135.595-198.955l-0.213-52.949zM448.725 192l38.827-85.333h49.664l39.253 85.333h-127.744zM576.512-64l-30.037 128h-68.907l-30.037-128h128.981z" />
<glyph unicode="&#xe904;" glyph-name="user-fill_10" d="M512 960c-282.752 0-512-229.248-512-512s229.248-512 512-512 512 229.248 512 512-229.248 512-512 512zM842.795 178.987c-11.136 25.003-33.664 42.283-79.829 52.949-97.835 22.571-188.928 42.368-144.768 125.653 134.187 253.525 35.541 389.077-106.197 389.077-144.555 0-240.811-140.757-106.197-389.077 45.483-83.797-48.981-103.552-144.768-125.653-46.251-10.667-68.608-28.075-79.659-53.163-59.947 73.515-96.043 167.211-96.043 269.227 0 235.264 191.403 426.667 426.667 426.667s426.667-191.403 426.667-426.667c0-101.931-36.053-195.541-95.872-269.013z" />
<glyph unicode="&#xe905;" glyph-name="user-bold_16" d="M767.872 192h-42.581c0 66.219 2.56 75.733-37.547 85.035-61.355 14.165-119.339 27.52-140.501 73.771-7.68 16.896-12.843 44.715 6.613 81.365 43.563 82.304 54.485 152.875 29.952 193.621-28.672 47.573-115.499 47.787-144.427-0.725-24.576-41.301-13.483-111.488 30.421-192.512 19.84-36.523 14.848-64.427 7.168-81.408-20.907-46.464-78.336-59.733-139.179-73.728-41.899-9.685-39.253-18.56-39.253-85.419h-42.453l-0.085 26.581c0 53.717 4.267 84.693 67.755 99.371 71.765 16.597 142.677 31.403 108.587 94.251-100.949 186.24-28.843 291.797 79.573 291.797 106.325 0 180.352-101.675 79.659-291.797-33.067-62.464 35.157-77.312 108.587-94.251 63.573-14.677 67.797-45.739 67.797-99.541l-0.085-26.411zM973.099 286.464c-54.997 12.715-106.197 23.851-81.408 70.699 75.52 142.592 20.053 218.837-59.733 218.837-53.973 0-95.915-34.859-95.915-99.2 0-54.144 24.491-92.8 38.571-124.8h44.715c-7.253 32-62.549 109.312-32.683 159.403 17.579 29.525 72.704 29.568 90.197 0.512 16.213-26.923 7.723-77.312-22.784-134.869-16.555-31.275-11.947-55.509-5.163-70.315 13.013-28.416 41.685-42.112 74.112-51.541 64.299-18.816 58.368-1.792 58.368-63.147h42.539l0.085 19.755c0 40.32-3.157 63.659-50.901 74.667zM0.085 192h42.539c0 61.355-5.931 44.331 58.368 63.147 32.469 9.429 61.141 23.125 74.112 51.541 6.784 14.848 11.392 39.040-5.163 70.315-30.507 57.557-38.997 107.947-22.784 134.869 17.493 29.099 72.619 29.056 90.197-0.512 29.867-50.133-25.429-127.403-32.683-159.403h44.715c14.080 32 38.571 70.656 38.571 124.8 0.043 64.384-41.899 99.243-95.872 99.243-79.787 0-135.253-76.245-59.733-218.837 24.789-46.891-26.411-57.984-81.408-70.699-47.787-11.008-50.944-34.347-50.944-74.709l0.085-19.755z" />
<glyph unicode="&#xe906;" glyph-name="user-bold_03" d="M512 874.667c117.632 0 213.333-95.701 213.333-213.376 0-117.589-95.701-213.333-213.333-213.333s-213.333 95.744-213.333 213.333c0 117.675 95.701 213.376 213.333 213.376zM512 960c-164.949 0-298.667-133.717-298.667-298.709 0-164.907 133.717-298.667 298.667-298.667s298.667 133.76 298.667 298.667c0 164.992-133.717 298.709-298.667 298.709zM783.744 390.272c-21.205-21.248-45.099-39.723-70.741-55.552 122.539-79.957 186.795-216.875 212.139-313.429h-827.179c24.405 97.707 87.808 234.795 212.181 313.941-25.728 15.957-49.579 34.603-70.741 55.979-181.675-131.072-239.403-362.923-239.403-455.211h1024c0 91.392-61.44 322.432-240.256 454.272z" />
<glyph unicode="&#xe907;" glyph-name="user-bold_11" d="M431.744 274.603c97.835 22.613 188.885 42.411 144.811 125.696-134.272 253.483-35.627 389.035 106.155 389.035 144.555 0 240.768-140.757 106.155-389.077-45.44-83.797 49.024-103.552 144.768-125.696 84.693-19.541 90.368-60.928 90.368-132.565l-0.128-35.328h-56.704c0 89.131 3.541 100.992-52.309 113.877-81.109 18.688-157.653 36.352-185.643 98.304-10.197 22.613-16.853 59.819 9.643 108.501 58.539 108.032 73.344 201.643 40.491 256.725-38.485 64.725-154.325 64.384-192.512 0.939-32.768-54.315-18.176-148.437 39.936-258.133 25.899-48.896 19.072-86.016 8.789-108.501-28.16-61.653-105.472-79.488-187.307-98.347-53.419-12.373-50.005-25.088-50.005-113.365h-56.789c0 93.696-7.509 145.323 90.283 167.936zM0.085 106.667h56.704c0 81.835-7.936 59.093 77.824 84.181 43.264 12.587 81.493 30.848 98.816 68.779 9.045 19.755 15.147 52.053-6.912 93.739-40.619 76.715-52.011 143.957-30.379 179.84 23.339 38.784 96.853 38.741 120.277-0.64 39.893-66.859-33.835-169.899-43.52-212.565h59.563c18.773 42.667 51.456 94.208 51.456 166.4 0 85.76-55.979 132.267-127.915 132.267-106.368 0-180.352-101.675-79.616-291.797 33.024-62.464-35.243-77.312-108.587-94.251-63.573-14.72-67.797-45.739-67.797-99.584l0.085-26.368z" />
<glyph unicode="&#xe908;" glyph-name="user-fill_04" d="M832 320c-105.941 0-192-85.973-192-192s86.059-192 192-192 192 85.973 192 192-86.059 192-192 192zM938.667 106.667h-85.333v-85.333h-42.667v85.333h-85.333v42.667h85.333v85.333h42.667v-85.333h85.333v-42.667zM632.32-64h-632.107l-0.213 52.949c0 107.52 8.491 169.6 135.595 198.955 143.573 33.152 285.355 62.848 217.173 188.501-201.941 372.437-57.6 583.595 159.232 583.595 288.043 0 320.256-324.053 155.307-583.637-55.125-86.656-112.64-154.88-112.64-248.363 0-74.539 29.696-142.123 77.653-192z" />
<glyph unicode="&#xe909;" glyph-name="user-bold_01" d="M888.405 187.904c-146.731 33.877-283.349 63.573-217.173 188.501 201.344 380.245 53.376 583.595-159.232 583.595-216.832 0-361.173-211.157-159.232-583.595 68.181-125.653-73.6-155.349-217.173-188.501-127.104-29.355-135.595-91.435-135.595-198.955l0.213-52.949h85.12c0 133.717-5.333 151.467 78.421 170.795 121.643 28.032 236.501 54.528 278.4 147.456 15.317 33.92 25.259 89.728-14.421 162.773-87.808 162.091-109.995 302.464-60.715 385.109 57.771 97.067 231.509 96.597 288.725 1.451 49.067-81.536 27.264-222.677-59.861-387.243-38.827-73.344-28.629-128.981-13.227-162.731 42.24-92.459 158.165-119.211 280.917-147.541 80.171-18.603 75.093-37.632 75.093-170.069h85.12l0.213 52.949c0 107.52-8.491 169.6-135.595 198.955z" />
<glyph unicode="&#xe90a;" glyph-name="user-fill_07" d="M888.405 187.904c-146.731 33.877-283.349 63.573-217.173 188.501 201.344 380.245 53.376 583.595-159.232 583.595-216.832 0-361.173-211.157-159.232-583.595 68.181-125.653-73.6-155.349-217.173-188.501-127.104-29.355-135.595-91.435-135.595-198.955l0.213-52.949h1023.573l0.213 52.949c0 107.52-8.491 169.6-135.595 198.955zM810.667 21.333h-213.333v85.333h213.333v-85.333z" />
<glyph unicode="&#xe90b;" glyph-name="user-bold_08" d="M409.685 802.133c-49.237-82.645-27.093-223.019 60.757-385.067 39.68-73.045 29.739-128.853 14.421-162.773-41.899-92.928-156.8-119.424-278.4-147.456-83.797-19.371-78.464-37.12-78.464-170.837h-85.12l-0.213 52.949c0 107.52 8.491 169.6 135.595 198.955 143.573 33.152 285.355 62.848 217.173 188.501-201.941 372.437-57.6 583.595 159.232 583.595 141.696 0 254.72-90.325 254.72-263.125 0-151.68-83.157-291.541-101.675-334.208h-90.24c16.725 65.536 106.624 186.283 106.624 334.592 0 219.861-250.325 212.693-314.411 104.875zM981.333 149.333h-341.333v-85.333h341.333v85.333z" />
<glyph unicode="&#xe90c;" glyph-name="user-bold_14" d="M874.667 405.333c-82.432 0-149.333-66.859-149.333-149.333s66.901-149.333 149.333-149.333 149.333 66.859 149.333 149.333-66.901 149.333-149.333 149.333zM938.667 234.667h-128v42.667h128v-42.667zM383.957 486.4c0-72.192-32.683-123.733-51.456-166.4h-59.605c9.685 42.667 83.371 145.707 43.563 212.565-23.467 39.381-96.939 39.424-120.277 0.64-21.632-35.883-10.24-103.125 30.379-179.84 22.101-41.728 15.957-73.984 6.912-93.739-17.323-37.931-55.595-56.192-98.816-68.779-85.76-25.088-77.867-2.347-77.867-84.181h-56.704l-0.085 26.368c0 53.845 4.224 84.864 67.84 99.541 73.344 16.939 141.611 31.787 108.587 94.251-100.736 190.165-26.752 291.84 79.616 291.84 71.979 0 127.915-46.507 127.915-132.267zM626.773 426.88c25.899-48.896 19.072-86.016 8.789-108.501-28.16-61.653-105.472-79.488-187.307-98.347-53.419-12.373-50.005-25.088-50.005-113.365h-56.789l-0.128 35.2c0 71.723 5.632 113.152 90.411 132.736 97.835 22.613 188.885 42.411 144.811 125.696-134.272 253.483-35.627 389.035 106.155 389.035 134.997 0 227.712-122.837 129.749-341.333h-63.275c49.451 99.2 60.928 184.576 30.208 236.075-38.485 64.725-154.325 64.384-192.512 0.939-32.768-54.315-18.176-148.395 39.893-258.133z" />
<glyph unicode="&#xe90d;" glyph-name="user-fill_03" d="M810.667 661.291c0-164.907-133.717-298.667-298.667-298.667s-298.667 133.76-298.667 298.667c0 164.992 133.717 298.709 298.667 298.709s298.667-133.717 298.667-298.709zM742.485 354.944c-64.256-48.512-143.957-77.653-230.485-77.653-86.613 0-166.357 29.227-230.699 77.739-173.739-76.501-281.301-314.709-281.301-419.029h1024c0 103.381-110.933 341.589-281.515 418.944z" />
<glyph unicode="&#xe90e;" glyph-name="user-fill_02" d="M888.405 136.235c-126.592 29.056-280.661 103.979-235.264 201.515 29.184-48.043 119.509-75.819 189.867-34.304-202.539 51.371 99.584 404.096-165.163 601.813-48.427 36.395-107.776 54.741-166.912 54.741-58.795 0-117.376-18.133-164.779-54.741-264.789-197.717 37.376-550.443-165.205-601.813 70.357-41.557 160.853-12.501 189.909 34.304 45.397-97.536-108.843-172.501-235.264-201.515-127.061-29.099-135.595-105.216-135.595-170.837l0.213-29.397h1023.573l0.213 29.483c0 65.579-8.533 141.653-135.595 170.752z" />
<glyph unicode="&#xe90f;" glyph-name="user-fill_11" d="M431.701 274.603c97.835 22.571 188.928 42.368 144.811 125.653-134.229 253.525-35.584 389.077 106.155 389.077 144.555 0 240.811-140.757 106.155-389.077-45.44-83.797 49.024-103.552 144.811-125.653 84.736-19.584 90.368-61.013 90.368-132.736l-0.128-35.2h-682.411c0 93.696-7.509 145.365 90.24 167.936zM0.085 106.667h256.043c-1.195 279.125 127.787 157.739 127.787 379.776 0 85.717-55.936 132.224-127.915 132.224-106.325 0-180.309-101.675-79.616-291.797 33.067-62.464-35.2-77.312-108.587-94.251-63.573-14.677-67.797-45.739-67.797-99.541l0.085-26.411z" />
<glyph unicode="&#xe910;" glyph-name="user-bold_04" d="M512 874.667c129.365 0 234.667-105.259 234.667-234.667 0-62.208-20.608-136.363-138.581-238.507 175.403-83.669 281.685-224.128 319.232-380.117h-831.403c40.747 178.688 170.88 315.691 320.811 379.264-68.309 54.912-139.392 141.781-139.392 239.36 0 129.408 105.301 234.667 234.667 234.667zM512 960c-176.725 0-320-143.232-320-320 0-85.845 34.005-163.584 89.003-221.099-214.613-128.384-281.003-362.709-281.003-482.901h1024c0 119.083-70.699 353.28-281.173 482.731 55.125 57.515 89.173 135.339 89.173 221.269 0 176.768-143.275 320-320 320z" />
<glyph unicode="&#xe911;" glyph-name="user-bold_13" d="M981.333 192h-85.333v-85.333h-42.667v85.333h-85.333v42.667h85.333v85.333h42.667v-85.333h85.333v-42.667zM298.709 618.667c-106.368 0-180.352-101.675-79.616-291.797 33.024-62.464-35.243-77.312-108.587-94.251-63.616-14.72-67.84-45.739-67.84-99.584l0.085-26.368h56.704c0 81.835-7.936 59.093 77.824 84.181 43.264 12.587 81.493 30.848 98.816 68.779 9.045 19.755 15.147 52.053-6.912 93.739-40.619 76.715-52.011 143.957-30.379 179.84 23.339 38.784 96.853 38.741 120.277-0.64 39.893-66.859-33.835-169.899-43.52-212.565h59.563c18.773 42.667 51.456 94.208 51.456 166.4 0.043 85.76-55.893 132.267-127.872 132.267zM629.547 685.056c38.187 63.445 153.984 63.744 192.512-0.939 32.853-55.083 18.048-148.651-40.491-256.725-4.181-7.68-7.253-14.976-9.899-22.059h62.464c130.432 245.077 34.816 384-108.715 384-141.781 0-240.427-135.552-106.155-389.077 44.075-83.285-46.976-103.083-144.811-125.696-84.821-19.541-90.453-60.971-90.453-132.693l0.128-35.2h56.789c0 88.277-3.413 100.992 50.048 113.365 81.835 18.859 159.104 36.693 187.307 98.347 10.283 22.485 17.109 59.605-8.789 108.501-58.112 109.739-72.704 203.819-39.936 258.176z" />
<glyph unicode="&#xe912;" glyph-name="user-bold_06" d="M409.685 802.133c-49.237-82.645-27.093-223.019 60.757-385.067 39.68-73.045 29.739-128.853 14.421-162.773-41.899-92.928-156.8-119.424-278.4-147.456-83.797-19.371-78.464-37.12-78.464-170.837h-85.12l-0.213 52.949c0 107.52 8.491 169.6 135.595 198.955 143.573 33.152 285.355 62.848 217.173 188.501-201.941 372.437-57.6 583.595 159.232 583.595 141.696 0 254.72-90.325 254.72-263.125 0-151.68-83.157-291.541-101.675-334.208h-90.24c16.725 65.536 106.624 186.283 106.624 334.592 0 219.861-250.325 212.693-314.411 104.875zM981.333 149.333h-128v128h-85.333v-128h-128v-85.333h128v-128h85.333v128h128v85.333z" />
<glyph unicode="&#xe913;" glyph-name="user-bold_12" d="M874.667 405.333c-82.432 0-149.333-66.859-149.333-149.333s66.901-149.333 149.333-149.333 149.333 66.859 149.333 149.333-66.901 149.333-149.333 149.333zM938.667 234.667h-42.667v-42.667h-42.667v42.667h-42.667v42.667h42.667v42.667h42.667v-42.667h42.667v-42.667zM383.957 486.4c0-72.192-32.683-123.733-51.456-166.4h-59.605c9.685 42.667 83.371 145.707 43.563 212.565-23.467 39.381-96.939 39.424-120.277 0.64-21.632-35.883-10.24-103.125 30.379-179.84 22.101-41.728 15.957-73.984 6.912-93.739-17.323-37.931-55.595-56.192-98.816-68.779-85.76-25.088-77.867-2.347-77.867-84.181h-56.704l-0.085 26.368c0 53.845 4.224 84.864 67.84 99.541 73.344 16.939 141.611 31.787 108.587 94.251-100.736 190.165-26.752 291.84 79.616 291.84 71.979 0 127.915-46.507 127.915-132.267zM626.773 426.88c25.899-48.896 19.072-86.016 8.789-108.501-28.16-61.653-105.472-79.488-187.307-98.347-53.419-12.373-50.005-25.088-50.005-113.365h-56.789l-0.128 35.2c0 71.723 5.632 113.152 90.411 132.736 97.835 22.613 188.885 42.411 144.811 125.696-134.272 253.483-35.627 389.035 106.155 389.035 134.997 0 227.712-122.837 129.749-341.333h-63.275c49.451 99.2 60.928 184.576 30.208 236.075-38.485 64.725-154.325 64.384-192.512 0.939-32.768-54.315-18.176-148.395 39.893-258.133z" />
<glyph unicode="&#xe914;" glyph-name="user-fill_05" d="M832 320c-105.941 0-192-85.973-192-192s86.059-192 192-192 192 85.973 192 192-86.059 192-192 192zM938.667 106.667h-213.333v42.667h213.333v-42.667zM632.32-64h-632.107l-0.213 52.949c0 107.52 8.491 169.6 135.595 198.955 143.573 33.152 285.355 62.848 217.173 188.501-201.941 372.437-57.6 583.595 159.232 583.595 288.043 0 320.256-324.053 155.307-583.637-55.125-86.656-112.64-154.88-112.64-248.363 0-74.539 29.696-142.123 77.653-192z" />
<glyph unicode="&#xe915;" glyph-name="user-bold_10" d="M1023.787-64h-85.12c0 132.437 5.077 151.467-75.136 170.069-122.752 28.331-238.677 55.083-280.917 147.541-15.403 33.749-25.643 89.387 13.227 162.731 87.125 164.565 108.971 305.707 59.861 387.243-57.216 95.104-230.955 95.616-288.683-1.451-49.237-82.645-27.093-223.019 60.757-385.067 39.68-73.045 29.739-128.853 14.421-162.773-41.899-92.928-156.8-119.424-278.4-147.456-83.797-19.371-78.464-37.12-78.464-170.837h-85.12l-0.213 52.949c0 107.52 8.491 169.6 135.595 198.955 143.573 33.152 285.355 62.848 217.173 188.501-201.941 372.437-57.6 583.595 159.232 583.595 212.608 0 360.576-203.349 159.232-583.595-66.176-124.928 70.4-154.624 217.173-188.501 127.104-29.355 135.595-91.435 135.595-198.955l-0.213-52.949zM768 64h-213.333v-85.333h213.333v85.333z" />
<glyph unicode="&#xe916;" glyph-name="user-fill_09" d="M512 960c-282.752 0-512-229.248-512-512s229.248-512 512-512 512 229.248 512 512-229.248 512-512 512zM512 21.333c-133.248 0-252.331 61.483-330.624 157.44 11.051 25.088 33.408 42.453 79.659 53.163 95.744 22.101 190.251 41.856 144.768 125.653-134.613 248.32-38.357 389.077 106.197 389.077 141.739 0 240.384-135.552 106.197-389.077-44.16-83.285 46.933-103.083 144.768-125.653 46.165-10.667 68.693-27.947 79.829-52.949-78.336-96.128-197.461-157.653-330.795-157.653z" />
<glyph unicode="&#xe917;" glyph-name="user-fill_08" d="M888.405 187.904c-146.731 33.877-283.349 63.573-217.173 188.501 17.067 32.256 31.573 63.189 43.819 92.928-36.949-21.163-78.208-37.547-100.651-43.136l-9.557 45.483c48.981 13.995 101.888 40.064 138.752 78.421 78.336 268.075-54.059 409.899-231.595 409.899-216.832 0-361.173-211.157-159.232-583.595 68.181-125.653-73.6-155.349-217.173-188.501-127.104-29.355-135.595-91.435-135.595-198.955l0.213-52.949h1023.573l0.213 52.949c0 107.52-8.491 169.6-135.595 198.955zM512.341 391.68c-18.816-3.883-37.248 8.277-41.088 27.136-3.925 18.859 8.235 37.291 27.051 41.173l74.795 16.597 14.037-68.267-74.795-16.64z" />
<glyph unicode="&#xe918;" glyph-name="user-fill_16" d="M1024 960v-1024h-1024v1024h1024zM762.965 274.603c-97.835 22.571-188.885 42.368-144.811 125.653 134.229 253.525 35.584 389.077-106.155 389.077-144.555 0-240.768-140.757-106.155-389.077 45.397-83.755-49.067-103.552-144.811-125.653-87.381-20.181-90.624-63.573-90.368-139.477l0.171-28.459h682.368l0.128 27.563c0.299 76.459-2.645 120.107-90.368 140.373z" />
<glyph unicode="&#xe919;" glyph-name="user-bold_17" d="M1024-64h-1024v1024h1024v-1024zM938.667 874.667h-853.333v-853.333h853.333v853.333zM762.965 274.603c-97.835 22.571-188.885 42.368-144.811 125.653 134.229 253.525 35.584 389.077-106.155 389.077-144.555 0-240.768-140.757-106.155-389.077 45.397-83.755-49.067-103.552-144.811-125.653-87.381-20.181-90.624-63.573-90.368-139.477l0.171-28.459h682.368l0.128 27.563c0.299 76.459-2.645 120.107-90.368 140.373z" />
<glyph unicode="&#xe91a;" glyph-name="user-fill_13" d="M0.085 106.667h256.043c-1.195 279.125 127.787 157.739 127.787 379.776 0 85.717-55.936 132.224-127.915 132.224-106.325 0-180.309-101.675-79.616-291.797 33.067-62.464-35.2-77.312-108.587-94.251-63.573-14.677-67.797-45.739-67.797-99.541l0.085-26.411zM874.667 405.333c-82.432 0-149.333-66.859-149.333-149.333s66.901-149.333 149.333-149.333 149.333 66.859 149.333 149.333-66.901 149.333-149.333 149.333zM938.667 234.667h-128v42.667h128v-42.667zM733.269 106.667h-391.808l-0.128 35.328c0 71.68 5.632 113.024 90.368 132.608 95.701 22.101 190.208 41.856 144.811 125.653-134.656 248.32-38.443 389.077 106.155 389.077 173.227 0 207.232-175.744 131.627-337.195-84.139-25.984-145.877-103.595-145.877-196.139 0-58.88 25.131-111.744 64.853-149.333z" />
<glyph unicode="&#xe91b;" glyph-name="user-bold_07" d="M367.019 802.133c-49.237-82.645-27.093-223.019 60.757-385.067 39.68-73.045 29.739-128.853 14.421-162.773-41.899-92.928-156.8-119.424-278.4-147.456-83.797-19.371-78.464-37.12-78.464-170.837h-85.12l-0.213 52.949c0 107.52 8.491 169.6 135.595 198.955 143.573 33.152 285.355 62.848 217.173 188.501-201.941 372.437-57.6 583.595 159.232 583.595 141.696 0 254.72-90.325 254.72-263.125 0-151.68-83.157-291.541-101.675-334.208h-90.24c16.725 65.536 106.624 186.283 106.624 334.592 0 219.861-250.325 212.693-314.411 104.875zM1024 128c0-106.027-86.059-192-192-192s-192 85.973-192 192 86.059 192 192 192 192-85.973 192-192zM938.667 149.333h-213.333v-42.667h213.333v42.667z" />
<glyph unicode="&#xe91c;" glyph-name="user-male-thin_01" d="M512 960c-216.875 0-361.173-211.157-159.275-583.595 68.096-125.653-73.6-155.349-217.173-188.501-131.115-30.251-135.979-95.36-135.552-209.237l0.171-42.667h1023.573l0.171 41.344c0.512 114.688-3.968 180.181-135.552 210.56-146.688 33.877-283.264 63.573-217.173 188.501 201.344 380.245 53.376 583.595-159.189 583.595zM512 917.333c80.64 0 144.64-32.597 180.267-91.733 57.771-96.043 36.949-248.491-58.752-429.227-24.619-46.592-28.715-88.661-12.075-125.099 39.979-87.424 203.008-112.299 257.365-124.928 98.261-22.784 102.912-56.021 102.443-167.68h-938.581c-0.427 111.573 3.84 144.896 102.443 167.68 49.365 11.349 219.221 39.211 258.091 125.44 16.512 36.608 12.117 78.635-12.971 124.971-95.189 175.573-117.077 331.264-59.947 427.179 35.84 60.245 100.395 93.397 181.717 93.397z" />
<glyph unicode="&#xe91d;" glyph-name="user-bold_05" d="M367.019 802.133c-49.237-82.645-27.093-223.019 60.757-385.067 39.68-73.045 29.739-128.853 14.421-162.773-41.899-92.928-156.8-119.424-278.4-147.456-83.797-19.371-78.464-37.12-78.464-170.837h-85.12l-0.213 52.949c0 107.52 8.491 169.6 135.595 198.955 143.573 33.152 285.355 62.848 217.173 188.501-201.941 372.437-57.6 583.595 159.232 583.595 141.696 0 254.72-90.325 254.72-263.125 0-151.68-83.157-291.541-101.675-334.208h-90.24c16.725 65.536 106.624 186.283 106.624 334.592 0 219.861-250.325 212.693-314.411 104.875zM1024 128c0-106.027-86.059-192-192-192s-192 85.973-192 192 86.059 192 192 192 192-85.973 192-192zM938.667 149.333h-85.333v85.333h-42.667v-85.333h-85.333v-42.667h85.333v-85.333h42.667v85.333h85.333v42.667z" />
<glyph unicode="&#xe91e;" glyph-name="user-fill_12" d="M0.085 106.667h256.043c-1.195 279.125 127.787 157.739 127.787 379.776 0 85.717-55.936 132.224-127.915 132.224-106.325 0-180.309-101.675-79.616-291.797 33.067-62.464-35.2-77.312-108.587-94.251-63.573-14.677-67.797-45.739-67.797-99.541l0.085-26.411zM874.667 405.333c-82.432 0-149.333-66.859-149.333-149.333s66.901-149.333 149.333-149.333 149.333 66.859 149.333 149.333-66.901 149.333-149.333 149.333zM938.667 234.667h-42.667v-42.667h-42.667v42.667h-42.667v42.667h42.667v42.667h42.667v-42.667h42.667v-42.667zM733.269 106.667h-391.808l-0.128 35.371c0 71.637 5.675 113.024 90.368 132.565 95.701 22.101 190.208 41.856 144.811 125.653-134.656 248.32-38.443 389.077 106.155 389.077 173.227 0 207.232-175.744 131.627-337.195-84.139-25.984-145.877-103.595-145.877-196.139 0-58.88 25.131-111.744 64.853-149.333z" />
<glyph unicode="&#xe91f;" glyph-name="user-bold_02" d="M888.448 136.235c-126.592 29.056-280.661 103.979-235.264 201.515 29.184-48 119.467-75.819 189.824-34.304-202.539 51.371 99.584 404.096-165.163 601.813-48.384 36.395-107.776 54.741-166.869 54.741-58.837 0-117.419-18.133-164.821-54.741-264.789-197.717 37.376-550.443-165.205-601.813 70.485-41.557 160.896-12.459 189.909 34.304 45.397-97.579-108.843-172.501-235.264-201.515-127.104-29.141-135.595-105.301-135.595-170.837l0.213-29.397h85.163c0 83.627-1.365 100.864 69.333 117.077 69.675 16 237.568 65.28 292.48 177.579 43.136 88.192-0.853 147.2-65.195 286.805-5.675-47.317-42.709-68.821-42.709-68.821-2.091 29.525-6.4 58.283-10.283 83.925-20.736 137.6-27.221 233.088 69.248 305.152 63.915 49.323 161.579 49.451 228.565-0.811 95.403-71.253 88.917-166.784 68.181-304.341-3.797-25.216-8.021-53.461-10.155-82.475 0 0-35.456 17.237-41.6 68.437-65.493-140.629-109.781-199.211-66.389-287.872 54.869-112.299 222.848-161.621 292.48-177.579 71.253-16.384 69.333-34.133 69.333-117.077h85.077l0.213 29.568c0.043 65.536-8.491 141.568-135.509 170.667z" />
<glyph unicode="&#xe920;" glyph-name="user-fill_15" d="M454.144 231.253c122.283 28.245 193.664 52.949 138.496 157.099-167.765 316.885-44.459 486.315 132.736 486.315 180.693 0 300.971-175.957 132.693-486.315-56.832-104.747 18.645-129.451 138.325-157.099 105.941-24.491 112.939-76.245 112.939-165.931v-43.989h-768c0 117.12-9.387 181.675 112.811 209.92zM-85.333 21.333h333.184c-1.493 348.885 146.603 226.688 146.603 474.752 0 107.136-69.931 165.248-159.915 165.248-132.907 0-225.365-127.104-99.541-364.757 41.344-78.080-43.989-96.64-135.723-117.803-79.445-18.347-84.608-57.173-84.608-124.459v-32.981z" />
<glyph unicode="&#xe921;" glyph-name="user-bold_15" d="M981.333 192h-213.333v42.667h213.333v-42.667zM298.752 618.667c-106.411 0-180.352-101.675-79.659-291.797 33.067-62.464-35.243-77.312-108.587-94.251-63.616-14.72-67.84-45.824-67.84-99.712l0.085-26.24h56.747c0 81.835-7.936 59.093 77.824 84.181 43.264 12.587 81.493 30.848 98.816 68.779 9.003 19.755 15.147 52.053-6.912 93.739-40.661 76.715-52.011 143.957-30.421 179.84 23.339 38.784 96.853 38.741 120.32-0.64 39.893-66.859-33.877-169.899-43.563-212.565h59.563c18.859 42.667 51.541 94.208 51.541 166.4 0 85.76-55.979 132.267-127.915 132.267zM629.589 685.056c38.187 63.445 153.984 63.744 192.512-0.939 32.853-55.083 18.005-148.651-40.491-256.725-4.181-7.68-7.253-14.976-9.899-22.059h62.421c130.432 245.077 34.816 384-108.672 384-141.824 0-240.427-135.552-106.155-389.077 44.075-83.285-47.019-103.083-144.853-125.696-84.736-19.584-90.368-60.971-90.368-132.736l0.128-35.2h56.747c0 88.277-3.413 100.992 50.091 113.365 81.835 18.859 159.104 36.693 187.264 98.347 10.325 22.485 17.152 59.605-8.747 108.501-58.155 109.781-72.747 203.861-39.979 258.219z" />
<glyph unicode="&#xe922;" glyph-name="user-circle-thin_01" d="M512 960c282.581 0 512-229.419 512-512s-229.419-512-512-512-512 229.419-512 512 229.419 512 512 512zM858.752 131.84c-12.032 17.109-32.939 27.904-69.291 36.267-164.181 38.656-174.805 64.043-185.685 87.851-11.051 24.107-8.107 52.48 8.747 84.352 73.643 138.965 89.173 257.024 43.819 332.373-28.757 47.744-80 73.984-144.341 73.984-64.896 0-116.565-26.709-145.451-75.221-45.483-76.331-29.568-193.877 44.757-330.965 17.152-31.659 20.309-59.989 9.387-84.224-11.307-25.003-26.069-50.773-186.24-88.149-36.352-8.363-57.259-19.157-69.248-36.181 85.845-94.165 209.493-153.259 346.795-153.259s260.907 59.093 346.752 153.173zM886.485 165.205c59.52 78.677 94.848 176.64 94.848 282.795 0 259.029-210.304 469.333-469.333 469.333s-469.333-210.304-469.333-469.333c0-106.112 35.285-204.075 94.805-282.709 17.451 19.285 44.757 34.56 87.424 44.416 86.4 19.712 144.043 35.669 156.928 64.085 5.205 11.605 2.603 26.795-8.021 46.379-81.792 150.827-97.365 283.349-43.947 373.12 36.395 61.056 102.741 96.043 182.144 96.043 78.72 0 144.683-34.475 180.907-94.635 53.376-88.704 38.229-221.653-42.667-374.357-10.453-19.755-12.971-35.029-7.637-46.677 13.013-28.501 70.144-44.288 156.459-63.957 42.667-9.813 69.973-25.173 87.424-44.501z" />
<glyph unicode="&#xe923;" glyph-name="facebook-bold_01" d="M512 874.667c235.264 0 426.667-191.403 426.667-426.667s-191.403-426.667-426.667-426.667-426.667 191.403-426.667 426.667 191.403 426.667 426.667 426.667zM512 960c-282.752 0-512-229.248-512-512s229.248-512 512-512 512 229.248 512 512-229.248 512-512 512zM426.667 533.333h-85.333v-85.333h85.333v-256h128v256h77.653l7.68 85.333h-85.333v35.541c0 20.395 4.096 28.459 23.808 28.459h61.525v106.667h-102.571c-76.715 0-110.763-33.792-110.763-98.475v-72.192z" />
<glyph unicode="&#xe924;" glyph-name="facebook-like-bold_01" d="M512 874.667c235.264 0 426.667-191.403 426.667-426.667s-191.403-426.667-426.667-426.667-426.667 191.403-426.667 426.667 191.403 426.667 426.667 426.667zM512 960c-282.752 0-512-229.248-512-512s229.248-512 512-512 512 229.248 512 512-229.248 512-512 512zM708.608 533.333h-57.984v37.333l21.376 66.005v67.328h-111.915c-46.037-135.851-80.171-202.496-133.547-202.667v32h-170.539v-256h170.539v21.333h42.795l53.504-64h180.48l64.683 62.421v197.589l-59.392 38.656zM725.333 315.221l-39.211-37.888h-148.395l-53.504 64h-57.685v117.333c79.445 0 129.707 100.821 164.139 202.667h38.656v-16.896l-21.333-66.005v-87.765h87.936l29.397-19.115v-156.331z" />
<glyph unicode="&#xe925;" glyph-name="facebook-messenger-bold_01" d="M512 960c-282.752 0-512-229.248-512-512s229.248-512 512-512 512 229.248 512 512-229.248 512-512 512zM512 874.667c235.264 0 426.667-191.403 426.667-426.667s-191.403-426.667-426.667-426.667-426.667 191.403-426.667 426.667 191.403 426.667 426.667 426.667zM512 682.667c-141.397 0-256-106.112-256-237.056 0-74.581 37.205-141.099 95.403-184.576v-90.368l87.168 47.829c23.253-6.443 47.915-9.899 73.429-9.899 141.397 0 256 106.112 256 237.013 0 130.944-114.603 237.056-256 237.056zM537.429 363.477l-65.195 69.504-127.189-69.504 139.904 148.523 66.816-69.547 125.611 69.547-139.947-148.523z" />
<glyph unicode="&#xe926;" glyph-name="line-fill_04" d="M512 960c282.752 0 512-229.205 512-512 0-282.752-229.248-512-512-512-282.709 0-512 229.248-512 512 0 282.795 229.291 512 512 512zM810.667 461.611c0 133.675-133.973 242.389-298.667 242.389s-298.667-108.715-298.667-242.389c0-119.808 106.24-220.117 249.771-239.104 9.728-2.091 22.955-6.4 26.325-14.72 3.029-7.552 1.963-19.371 0.939-27.008l-4.224-25.557c-1.323-7.552-6.016-29.525 25.856-16.128 31.872 13.44 171.989 101.291 234.667 173.397 43.264 47.488 64 95.659 64 149.12zM400.811 384.469h-83.669l-4.053 1.621-0.171 0.171-1.621 4.011v130.133c0 3.2 2.603 5.803 5.845 5.803h20.949c3.2 0 5.803-2.603 5.803-5.803v-103.339h56.917c3.2-0.043 5.803-2.645 5.803-5.845v-20.949c0-3.2-2.603-5.803-5.803-5.803zM711.211 384.469h-83.712l-4.011 1.621-0.171 0.171-1.621 4.011v130.133l1.621 4.011 0.171 0.171 4.011 1.621h83.712c3.2 0 5.803-2.603 5.803-5.803v-20.949c0-3.243-2.603-5.845-5.803-5.845h-56.917v-21.973h56.917c3.2 0 5.803-2.603 5.803-5.845v-20.949c0-3.2-2.603-5.803-5.803-5.803h-56.917v-21.973h56.917c3.2-0.043 5.803-2.645 5.803-5.845v-20.949c0-3.2-2.603-5.803-5.803-5.803zM451.328 384.469h-20.949c-3.243 0-5.845 2.603-5.845 5.803v130.133c0 3.2 2.603 5.803 5.845 5.803h20.949c3.2 0 5.803-2.603 5.803-5.803v-130.133c0-3.2-2.603-5.803-5.803-5.803zM504.277 384.469h-20.949c-3.2 0-5.845 2.603-5.845 5.803v130.133c0 3.2 2.645 5.803 5.845 5.803h20.949l0.512-0.043 0.555-0.043 0.299-0.085 0.555-0.171 0.213-0.043 0.512-0.256 0.469-0.256 0.299-0.213 0.597-0.469 0.384-0.427 0.427-0.555 59.648-80.555v77.312c0 3.2 2.603 5.803 5.803 5.803h20.949c3.243 0 5.845-2.603 5.845-5.803v-130.133c0-3.2-2.603-5.803-5.845-5.803h-20.949l-1.493 0.171-0.085 0.043-0.555 0.171-0.299 0.128-0.427 0.213-0.341 0.256-0.085 0.043-1.451 1.408-59.733 80.64v-77.269c0-3.2-2.603-5.803-5.803-5.803z" />
<glyph unicode="&#xe927;" glyph-name="line-fill_02" d="M1024-64h-1024v1024h1024v-1024zM853.333 469.675c0 152.747-153.131 276.992-341.333 276.992s-341.333-124.245-341.333-276.992c0-136.917 121.429-251.605 285.483-273.28 11.093-2.389 26.24-7.339 30.037-16.853 3.456-8.619 2.261-22.144 1.109-30.848l-4.864-29.227c-1.493-8.619-6.869-33.749 29.568-18.389s196.565 115.755 268.203 198.187h-0.043c49.493 54.229 73.173 109.269 73.173 170.411zM384.939 381.483h-95.659l-4.608 1.835v0.043l-0.171 0.171-1.877 4.565v148.736c0 3.669 2.987 6.656 6.656 6.656h23.979c3.627 0 6.613-2.987 6.613-6.656v-118.101h65.067c3.669 0 6.613-2.987 6.613-6.656v-23.936c0-3.669-2.944-6.656-6.613-6.656zM739.669 381.483h-95.659l-4.608 1.835-0.171 0.213-1.877 4.565v148.736l1.877 4.565 0.171 0.213 4.608 1.877h95.659c3.669 0 6.613-2.987 6.613-6.656v-23.936c0-3.669-2.944-6.656-6.613-6.656h-65.067v-25.131h65.067c3.669 0 6.613-2.987 6.613-6.656v-23.936c0-3.669-2.944-6.656-6.613-6.656h-65.067v-25.131h65.067c3.669 0 6.613-2.987 6.613-6.656v-23.936c0-3.669-2.944-6.656-6.613-6.656zM442.667 381.483h-23.979c-3.669 0-6.656 2.944-6.656 6.613v148.736c0 3.669 2.987 6.656 6.656 6.656h23.979c3.669 0 6.613-2.987 6.613-6.656v-148.736c0-3.627-2.944-6.613-6.613-6.613zM503.168 381.483h-23.936c-3.669 0-6.656 2.944-6.656 6.613v148.736c0 3.669 2.987 6.656 6.656 6.656h23.936l0.555-0.043 0.64-0.085 0.384-0.085 0.64-0.171 0.213-0.085 0.597-0.256 0.555-0.341 0.341-0.213 0.512-0.427 0.128-0.128 0.427-0.469 0.555-0.64 68.139-92.075v88.363c0 3.669 2.987 6.656 6.656 6.656h23.936c3.669 0 6.656-2.987 6.656-6.656v-148.736c0-3.627-2.987-6.613-6.656-6.613h-23.936l-1.707 0.213-0.085 0.043-0.683 0.213-0.299 0.128-0.512 0.256-0.427 0.256-0.043 0.043-1.707 1.664-68.224 92.16v-88.363c0-3.627-2.987-6.613-6.656-6.613z" />
<glyph unicode="&#xe928;" glyph-name="line-fill_03" d="M810.667-64h-597.333c-117.803 0-213.333 95.531-213.333 213.333v597.333c0 117.803 95.531 213.333 213.333 213.333h597.333c117.845 0 213.333-95.531 213.333-213.333v-597.333c0-117.803-95.488-213.333-213.333-213.333zM853.333 469.675c0 152.747-153.131 276.992-341.333 276.992s-341.333-124.245-341.333-276.992c0-136.917 121.429-251.605 285.483-273.28 11.093-2.389 26.24-7.339 30.037-16.853 3.456-8.619 2.261-22.144 1.109-30.848l-4.864-29.227c-1.493-8.619-6.869-33.749 29.568-18.389s196.565 115.755 268.203 198.187h-0.043c49.493 54.229 73.173 109.269 73.173 170.411zM384.939 381.483h-95.659l-4.608 1.835v0.043l-0.171 0.171-1.877 4.565v148.736c0 3.669 2.987 6.656 6.656 6.656h23.979c3.627 0 6.613-2.987 6.613-6.656v-118.101h65.067c3.669 0 6.613-2.987 6.613-6.656v-23.936c0-3.669-2.944-6.656-6.613-6.656zM739.669 381.483h-95.659l-4.608 1.835-0.171 0.213-1.877 4.565v148.736l1.877 4.565 0.171 0.213 4.608 1.877h95.659c3.669 0 6.613-2.987 6.613-6.656v-23.936c0-3.669-2.944-6.656-6.613-6.656h-65.067v-25.131h65.067c3.669 0 6.613-2.987 6.613-6.656v-23.936c0-3.669-2.944-6.656-6.613-6.656h-65.067v-25.131h65.067c3.669 0 6.613-2.987 6.613-6.656v-23.936c0-3.669-2.944-6.656-6.613-6.656zM442.667 381.483h-23.979c-3.669 0-6.656 2.944-6.656 6.613v148.736c0 3.669 2.987 6.656 6.656 6.656h23.979c3.669 0 6.613-2.987 6.613-6.656v-148.736c0-3.627-2.944-6.613-6.613-6.613zM503.168 381.483h-23.936c-3.669 0-6.656 2.944-6.656 6.613v148.736c0 3.669 2.987 6.656 6.656 6.656h23.936l0.555-0.043 0.64-0.085 0.384-0.085 0.64-0.171 0.213-0.085 0.597-0.256 0.555-0.341 0.341-0.213 0.512-0.427 0.128-0.128 0.427-0.469 0.555-0.64 68.139-92.075v88.363c0 3.669 2.987 6.656 6.656 6.656h23.936c3.669 0 6.656-2.987 6.656-6.656v-148.736c0-3.627-2.987-6.613-6.656-6.613h-23.936l-1.707 0.213-0.085 0.043-0.683 0.213-0.299 0.128-0.512 0.256-0.427 0.256-0.043 0.043-1.707 1.664-68.224 92.16v-88.363c0-3.627-2.987-6.613-6.656-6.613z" />
<glyph unicode="&#xe929;" glyph-name="facebook-fill_06" d="M512 960c-282.752 0-512-229.248-512-512s229.248-512 512-512 512 229.248 512 512-229.248 512-512 512zM640 618.667h-57.6c-22.955 0-27.733-9.429-27.733-33.195v-52.139h85.333l-8.917-85.333h-76.416v-298.667h-128v298.667h-85.333v85.333h85.333v98.475c0 75.477 39.723 114.859 129.237 114.859h84.096v-128z" />
<glyph unicode="&#xe92a;" glyph-name="facebook-fill_05" d="M810.667 960h-597.333c-117.803 0-213.333-95.531-213.333-213.333v-597.333c0-117.803 95.531-213.333 213.333-213.333h597.333c117.845 0 213.333 95.531 213.333 213.333v597.333c0 117.803-95.488 213.333-213.333 213.333zM682.667 661.333h-82.091c-26.24 0-45.909-10.752-45.909-37.931v-47.403h128l-10.155-128h-117.845v-341.333h-128v341.333h-85.333v128h85.333v82.048c0 86.272 45.397 131.285 147.669 131.285h108.331v-128z" />
<glyph unicode="&#xe92b;" glyph-name="facebook-fill_07" d="M967.467 960h-910.933c-31.232 0-56.533-25.301-56.533-56.533v-910.976c0-31.189 25.301-56.491 56.533-56.491h490.453v396.544h-133.461v154.539h133.461v113.963c0 132.267 80.768 204.288 198.784 204.288 56.533 0 105.088-4.224 119.253-6.101v-138.24l-81.835-0.043c-64.171 0-76.587-30.507-76.587-75.221v-98.688h153.045l-19.925-154.539h-133.12v-396.501h260.949c31.147 0 56.448 25.301 56.448 56.533v910.933c0 31.232-25.301 56.533-56.533 56.533z" />
<glyph unicode="&#xe92c;" glyph-name="facebook-fill_04" d="M0 960v-1024h1024v1024h-1024zM682.667 661.333h-82.048c-26.283 0-45.952-10.752-45.952-37.931v-47.403h128l-10.197-128h-117.803v-341.333h-128v341.333h-85.333v128h85.333v82.048c0 86.272 45.397 131.285 147.669 131.285h108.331v-128z" />
<glyph unicode="&#xe92d;" glyph-name="facebook-like-fill_03" d="M695.936 490.667l29.397-19.115v-156.331l-39.211-37.888h-148.395l-53.504 64h-57.557v117.333c79.488 0.085 118.997 69.504 164.011 202.667h38.656v-16.896l-21.333-66.005v-87.765h87.936zM1024 448c0-282.752-229.248-512-512-512s-512 229.248-512 512 229.248 512 512 512 512-229.248 512-512zM768 494.677l-59.392 38.656h-57.984v37.333l21.376 66.005v67.328h-111.915c-46.037-135.851-80.043-202.496-133.419-202.667v32h-170.667v-256h170.667v21.333h53.333l42.837-64h180.48l64.683 62.421v197.589z" />
<glyph unicode="&#xe92e;" glyph-name="facebook-messenger-fill_02" d="M810.667-64h-597.333c-117.803 0-213.333 95.531-213.333 213.333v597.333c0 117.803 95.531 213.333 213.333 213.333h597.333c117.845 0 213.333-95.531 213.333-213.333v-597.333c0-117.803-95.488-213.333-213.333-213.333zM512 768c-188.501 0-341.333-141.483-341.333-316.032 0-99.499 49.621-188.203 127.189-246.144v-120.491l116.224 63.787c31.019-8.576 63.872-13.227 97.92-13.227 188.501 0 341.333 141.525 341.333 316.075s-152.832 316.032-341.333 316.032zM545.92 342.4l-86.912 92.715-169.6-92.715 186.539 198.059 89.045-92.715 167.509 92.715-186.581-198.059z" />
<glyph unicode="&#xe92f;" glyph-name="facebook-messenger-fill_03" d="M512 960c282.752 0 512-229.205 512-512 0-282.752-229.248-512-512-512-282.709 0-512 229.248-512 512 0 282.795 229.291 512 512 512zM512 725.333c-164.949 0-298.667-123.819-298.667-276.523 0-87.040 43.435-164.693 111.317-215.381v-105.429l101.675 55.808c27.136-7.509 55.893-11.563 85.675-11.563 164.949 0 298.667 123.819 298.667 276.565 0 152.704-133.717 276.523-298.667 276.523zM541.696 352.939l163.243 173.269-146.56-81.109-77.909 81.109-163.243-173.269 148.395 81.109 76.075-81.109z" />
<glyph unicode="&#xe930;" glyph-name="facebook-like-fill_02" d="M757.248 504.875l39.168-25.515v-265.344l-52.267-50.517h-197.803l-71.339 71.168h-91.008v213.333c105.984 0.128 172.928 106.88 232.917 284.459h51.499v-22.485l-28.416-88.064v-117.035h117.248zM1024 746.667v-597.333c0-117.803-95.488-213.333-213.333-213.333h-597.333c-117.803 0-213.333 95.531-213.333 213.333v597.333c0 117.803 95.531 213.333 213.333 213.333h597.333c117.845 0 213.333-95.531 213.333-213.333zM853.333 510.208l-79.147 51.584h-77.312v49.749l28.459 88.064v89.728h-149.248c-61.397-181.163-120.917-284.203-192.085-284.416v28.416h-213.333v-384h213.333l0.213 28.459h70.912l71.296-71.125h240.64l86.272 83.2v320.341z" />
<glyph unicode="&#xe931;" glyph-name="facebook-messenger-fill_01" d="M1024-64h-1024v1024h1024v-1024zM512 768c-188.501 0-341.333-141.483-341.333-316.032 0-99.499 49.621-188.203 127.189-246.144v-120.491l116.224 63.787c31.019-8.576 63.872-13.227 97.92-13.227 188.501 0 341.333 141.525 341.333 316.075s-152.832 316.032-341.333 316.032zM545.92 342.4l-86.912 92.715-169.6-92.715 186.539 198.059 89.045-92.715 167.509 92.715-186.581-198.059z" />
<glyph unicode="&#xe932;" glyph-name="facebook-like-fill_01" d="M757.291 504.875l39.168-25.515v-265.344l-52.309-50.517h-197.803l-71.339 71.168h-91.008v213.333c105.984 0.128 172.885 106.88 232.917 284.459h51.541v-22.485l-28.459-88.064v-117.035h117.291zM1024 960v-1024h-1024v1024h1024zM853.333 510.208l-79.189 51.584h-77.269v49.749l28.459 88.064v89.728h-149.248c-61.397-181.163-120.917-284.203-192.085-284.416v28.416h-213.333v-384h213.333v28.459h71.125l71.296-71.125h240.683l86.229 83.2v320.341z" />
<glyph unicode="&#xe933;" glyph-name="square-bold_01" d="M938.667 874.667v-853.333h-853.333v853.333h853.333zM1024 960h-1024v-1024h1024v1024z" />
<glyph unicode="&#xe934;" glyph-name="checkbox-bold_05" d="M938.667 874.667v-853.333h-853.333v853.333h853.333zM1024 960h-1024v-1024h1024v1024z" />
<glyph unicode="&#xe935;" glyph-name="checkbox-bold_10" d="M682.667-64v85.333h-341.333v-85.333h341.333zM682.667 960v-85.333h-341.333v85.333h341.333zM768 960h42.667c117.845 0 213.333-95.531 213.333-213.333v-42.667h-85.333v42.667c0 70.571-57.429 128-128 128h-42.667v85.333zM1024 277.333h-85.333v341.333h85.333v-341.333zM256-64h-42.667c-117.845 0-213.333 95.531-213.333 213.333v42.667h85.333v-42.667c0-70.571 57.429-128 128-128h42.667v-85.333zM1024 192v-42.667c0-117.803-95.488-213.333-213.333-213.333h-42.667v85.333h42.667c70.571 0 128 57.429 128 128v42.667h85.333zM0 704v42.667c0 117.803 95.488 213.333 213.333 213.333h42.667v-85.333h-42.667c-70.571 0-128-57.429-128-128v-42.667h-85.333zM0 618.667h85.333v-341.333h-85.333v341.333z" />
<glyph unicode="&#xe936;" glyph-name="checkbox-bold_09" d="M213.333 874.667c-70.571 0-128-57.429-128-128v-597.333c0-70.571 57.429-128 128-128h597.333c70.571 0 128 57.429 128 128v597.333c0 70.571-57.429 128-128 128h-597.333zM1024 746.667v-597.333c0-117.803-95.488-213.333-213.333-213.333h-597.333c-117.845 0-213.333 95.531-213.333 213.333v597.333c0 117.803 95.488 213.333 213.333 213.333h597.333c117.845 0 213.333-95.531 213.333-213.333z" />
<glyph unicode="&#xe937;" glyph-name="square-bold_02" d="M810.667 874.667c70.571 0 128-57.429 128-128v-597.333c0-70.571-57.429-128-128-128h-597.333c-70.571 0-128 57.429-128 128v597.333c0 70.571 57.429 128 128 128h597.333zM810.667 960h-597.333c-117.845 0-213.333-95.531-213.333-213.333v-597.333c0-117.803 95.488-213.333 213.333-213.333h597.333c117.845 0 213.333 95.531 213.333 213.333v597.333c0 117.803-95.488 213.333-213.333 213.333z" />
<glyph unicode="&#xe938;" glyph-name="square-bold_03" d="M682.667 960v-85.333h-341.333v85.333h341.333zM682.667-64v85.333h-341.333v-85.333h341.333zM768 874.667h170.667v-170.667h85.333v256h-256v-85.333zM0 277.333h85.333v341.333h-85.333v-341.333zM85.333 704v170.667h170.667v85.333h-256v-256h85.333zM1024 618.667h-85.333v-341.333h85.333v341.333zM938.667 192v-170.667h-170.667v-85.333h256v256h-85.333zM256 21.333h-170.667v170.667h-85.333v-256h256v85.333z" />
<glyph unicode="&#xe939;" glyph-name="square-bold_04" d="M682.667 960v-85.333h-341.333v85.333h341.333zM0 277.333h85.333v341.333h-85.333v-341.333zM682.667-64v85.333h-341.333v-85.333h341.333zM768 874.667h42.667c70.571 0 128-57.429 128-128v-42.667h85.333v42.667c0 117.803-95.488 213.333-213.333 213.333h-42.667v-85.333zM256 21.333h-42.667c-70.571 0-128 57.429-128 128v42.667h-85.333v-42.667c0-117.803 95.488-213.333 213.333-213.333h42.667v85.333zM938.667 192v-42.667c0-70.571-57.429-128-128-128h-42.667v-85.333h42.667c117.845 0 213.333 95.531 213.333 213.333v42.667h-85.333zM1024 618.667h-85.333v-341.333h85.333v341.333zM85.333 704v42.667c0 70.571 57.429 128 128 128h42.667v85.333h-42.667c-117.845 0-213.333-95.531-213.333-213.333v-42.667h85.333z" />
<glyph unicode="&#xe93a;" glyph-name="checkbox-bold_06" d="M341.333 960v-85.333h341.333v85.333h-341.333zM341.333-64v85.333h341.333v-85.333h-341.333zM768 960h256v-256h-85.333v170.667h-170.667v85.333zM0 618.667h85.333v-341.333h-85.333v341.333zM0 704v256h256v-85.333h-170.667v-170.667h-85.333zM1024 277.333h-85.333v341.333h85.333v-341.333zM1024 192v-256h-256v85.333h170.667v170.667h85.333zM256-64h-256v256h85.333v-170.667h170.667v-85.333z" />
<glyph unicode="&#xe93b;" glyph-name="square-fill_01" d="M1024 960h-1024v-1024h1024v1024z" />
<glyph unicode="&#xe93c;" glyph-name="square-fill_03" d="M1024 746.667c0 117.803-95.488 213.333-213.333 213.333h-597.333c-117.803 0-213.333-95.531-213.333-213.333v-597.333c0-117.803 95.531-213.333 213.333-213.333h597.333c117.845 0 213.333 95.531 213.333 213.333v597.333z" />
<glyph unicode="&#xe93d;" glyph-name="checkbox-bold_12" d="M0 960v-1024h1024v1024h-1024zM768 192h-512v512h512v-512z" />
<glyph unicode="&#xe93e;" glyph-name="square-fill_02" d="M1024 832c0 70.699-57.301 128-128 128h-768c-70.699 0-128-57.301-128-128v-768c0-70.699 57.301-128 128-128h768c70.699 0 128 57.301 128 128v768z" />
<glyph unicode="&#xe93f;" glyph-name="checkbox-bold_19" d="M512 960c-282.752 0-512-229.248-512-512s229.248-512 512-512 512 229.248 512 512-229.248 512-512 512zM512 192c-141.355 0-256 114.645-256 256s114.645 256 256 256c141.397 0 256-114.645 256-256s-114.603-256-256-256z" />
<glyph unicode="&#xe940;" glyph-name="checkbox-checked-thin_02" d="M1024-64h-1024v1024h1024v-1024zM981.333 917.333h-938.667v-938.667h938.667v938.667zM853.333 642.773l-426.88-450.773-213.12 250.283 32.469 27.648 182.229-213.973 394.24 416.043 31.061-29.227z" />
<glyph unicode="&#xe941;" glyph-name="checkbox-checked-extended-thin_01" d="M810.667 21.333h-810.667v810.667h810.667v-85.333h-42.667v42.667h-725.333v-725.333h725.333v405.419h42.667v-448.085zM1024 845.44l-638.549-677.205-237.141 279.765 32.512 27.648 206.208-243.499 605.909 642.517 31.061-29.227z" />
<glyph unicode="&#xe942;" glyph-name="check-mark-thin" d="M1024 760.107l-696.619-738.773-327.381 386.304 32.469 27.648 296.533-349.995 663.936 704.043 31.061-29.227z" />
<glyph unicode="&#xe943;" glyph-name="check-mark-circle-thin_01" d="M512 960c-282.581 0-512-229.419-512-512s229.419-512 512-512c282.581 0 512 229.419 512 512s-229.419 512-512 512zM512 917.333c259.029 0 469.333-210.304 469.333-469.333s-210.304-469.333-469.333-469.333-469.333 210.304-469.333 469.333 210.304 469.333 469.333 469.333zM810.667 599.168l-31.061 29.227-351.573-373.419-182.229 214.016-32.469-27.691 213.12-250.24 384.213 408.107z" />
<glyph unicode="&#xe944;" glyph-name="check-mark-bold_03" d="M512 874.667c235.264 0 426.667-191.403 426.667-426.667s-191.403-426.667-426.667-426.667-426.667 191.403-426.667 426.667 191.403 426.667 426.667 426.667zM512 960c-282.752 0-512-229.248-512-512s229.248-512 512-512 512 229.248 512 512-229.248 512-512 512zM699.435 640l-240.768-246.784-112.811 106.923-79.189-79.275 192-186.197 320 326.101-79.232 79.232z" />
<glyph unicode="&#xe945;" glyph-name="check-mark-bold_10" d="M932.523 520.405c3.669-23.637 6.144-47.701 6.144-72.405 0-259.2-210.133-469.333-469.333-469.333s-469.333 210.133-469.333 469.333 210.133 469.333 469.333 469.333c100.139 0 192.768-31.616 268.971-85.035l-60.672-62.165c-60.075 38.955-131.499 61.867-208.299 61.867-211.712 0-384-172.288-384-384s172.288-384 384-384c208.811 0 378.837 167.595 383.573 375.253l79.616 81.152zM891.904 867.541l-401.237-411.264-163.968 154.197-132.053-132.181 296.021-286.293 533.333 543.445-132.096 132.096z" />
<glyph unicode="&#xe946;" glyph-name="check-mark-bold_09" d="M853.333 439.723v-418.389h-853.333v853.333h779.605l-83.243-85.333h-611.029v-682.667h682.667v246.101l85.333 86.955zM891.904 867.541l-401.237-411.264-187.947 178.176-132.053-132.139 320-310.315 533.333 543.445-132.096 132.096z" />
<glyph unicode="&#xe947;" glyph-name="checkbox-bold_02" d="M233.813 529.536l67.541 62.464c79.104-38.229 129.195-67.328 218.027-130.688 167.083 189.525 277.461 285.696 482.645 413.355l21.973-50.603c-169.173-147.627-293.12-312.064-471.509-632.064-110.037 129.621-183.509 212.224-318.677 337.536zM768 388.011v-281.344h-682.667v682.667h646.016c36.096 29.141 73.984 57.216 114.816 85.333h-846.165v-853.333h853.333v491.051c-27.989-37.888-56.235-79.104-85.333-124.373z" />
<glyph unicode="&#xe948;" glyph-name="check-mark-bold_04" d="M512 874.667c235.264 0 426.667-191.403 426.667-426.667s-191.403-426.667-426.667-426.667-426.667 191.403-426.667 426.667 191.403 426.667 426.667 426.667zM512 960c-282.752 0-512-229.248-512-512s229.248-512 512-512 512 229.248 512 512-229.248 512-512 512zM778.667 580.651l-60.629 60.117-260.48-265.301-131.328 125.312-59.563-61.269 192-184.277 320 325.419z" />
<glyph unicode="&#xe949;" glyph-name="check-mark-bold_12" d="M896 691.84l-476.16-543.275-291.84 256.768 56.277 63.573 227.883-199.936 420.907 477.696 62.933-54.827z" />
<glyph unicode="&#xe94a;" glyph-name="checkbox-bold_03" d="M938.667 874.667v-853.333h-853.333v853.333h853.333zM1024 960h-1024v-1024h1024v1024zM787.584 601.216l-60.672 60.117-299.563-306.475-131.413 125.312-59.52-61.227 192-184.277 359.168 366.549z" />
<glyph unicode="&#xe94b;" glyph-name="checkbox-bold_15" d="M512 874.667c235.264 0 426.667-191.403 426.667-426.667s-191.403-426.667-426.667-426.667-426.667 191.403-426.667 426.667 191.403 426.667 426.667 426.667zM512 960c-282.752 0-512-229.248-512-512s229.248-512 512-512 512 229.248 512 512-229.248 512-512 512zM428.416 234.667l-192 184.277 59.52 61.227 131.413-125.312 299.563 306.475 60.672-60.117-359.168-366.549z" />
<glyph unicode="&#xe94c;" glyph-name="checkbox-bold_01" d="M853.333 439.723v-418.389h-853.333v853.333h779.605l-83.243-85.333h-611.029v-682.667h682.667v246.101l85.333 86.955zM891.904 867.541l-401.237-411.264-187.947 178.176-132.053-132.139 320-310.315 533.333 543.445-132.096 132.096z" />
<glyph unicode="&#xe94d;" glyph-name="checkbox-bold_07" d="M428.416 234.667l-192 184.277 59.52 61.227 131.413-125.312 299.563 306.475 60.672-60.117-359.168-366.549zM213.333 874.667c-70.571 0-128-57.429-128-128v-597.333c0-70.571 57.429-128 128-128h597.333c70.571 0 128 57.429 128 128v597.333c0 70.571-57.429 128-128 128h-597.333zM1024 746.667v-597.333c0-117.803-95.488-213.333-213.333-213.333h-597.333c-117.845 0-213.333 95.531-213.333 213.333v597.333c0 117.803 95.488 213.333 213.333 213.333h597.333c117.845 0 213.333-95.531 213.333-213.333z" />
<glyph unicode="&#xe94e;" glyph-name="checkbox-bold_14" d="M233.813 529.536l67.541 62.464c79.104-38.229 129.195-67.328 218.027-130.688 167.083 189.525 277.461 285.696 482.603 413.355l22.016-50.603c-169.173-147.627-293.12-312.064-471.509-632.064-110.037 129.621-183.509 212.224-318.677 337.536zM848.512 505.771c2.859-18.901 4.821-38.101 4.821-57.771 0-211.712-172.288-384-384-384s-384 172.288-384 384 172.288 384 384 384c84.096 0 161.707-27.477 225.024-73.515 22.229 19.029 44.885 37.589 68.267 55.595-80.384 64.469-182.229 103.253-293.291 103.253-259.2 0-469.333-210.133-469.333-469.333s210.133-469.333 469.333-469.333 469.333 210.133 469.333 469.333c0 50.304-8.107 98.688-22.784 144.128-22.528-27.008-44.885-55.68-67.371-86.357z" />
<glyph unicode="&#xe94f;" glyph-name="checkbox-bold_13" d="M932.48 520.405c3.669-23.637 6.187-47.701 6.187-72.405 0-259.2-210.133-469.333-469.333-469.333s-469.333 210.133-469.333 469.333 210.133 469.333 469.333 469.333c100.181 0 192.768-31.616 268.971-85.035l-60.629-62.165c-60.075 38.955-131.541 61.867-208.341 61.867-211.755 0-384-172.288-384-384s172.245-384 384-384c208.811 0 378.837 167.595 383.573 375.253l79.573 81.152zM891.904 867.541l-401.237-411.264-163.968 154.197-132.053-132.181 296.021-286.293 533.333 543.445-132.096 132.096z" />
<glyph unicode="&#xe950;" glyph-name="checkbox-bold_17" d="M512 874.667c235.264 0 426.667-191.403 426.667-426.667s-191.403-426.667-426.667-426.667-426.667 191.403-426.667 426.667 191.403 426.667 426.667 426.667zM512 960c-282.752 0-512-229.248-512-512s229.248-512 512-512 512 229.248 512 512-229.248 512-512 512zM768 254.379l-195.925 194.048 193.963 195.712-60.416 59.861-193.92-195.797-195.755 193.835-59.947-59.947 195.968-194.219-194.005-195.925 59.947-59.947 194.347 196.096 195.883-194.133 59.861 60.416z" />
<glyph unicode="&#xe951;" glyph-name="checkbox-bold_16" d="M428.416 234.667l-192 184.277 59.52 61.227 131.413-125.312 299.563 306.475 60.672-60.117-359.168-366.549zM57.045 682.667c47.36 92.075 122.795 170.027 220.331 220.245l32.683-78.848c-75.904-40.704-135.253-102.144-173.867-174.165l-79.147 32.768zM310.144 72.235c-72.064 38.613-133.419 97.92-174.165 173.867l-78.848-32.64c50.133-97.579 128.128-173.013 220.245-220.459l32.768 79.232zM103.339 324.949c-24.917 82.475-23.424 167.808 0.213 246.059l-79.232 32.811c-15.957-49.963-24.32-102.443-24.32-155.648 0-51.84 7.936-104.363 24.448-155.904l78.891 32.683zM356.267 935.552l32.683-78.891c82.475 24.917 167.851 23.424 246.059-0.213l32.853 79.189c-50.048 16-102.485 24.363-155.691 24.363-51.84 0-104.32-7.936-155.904-24.448zM713.856 823.808c72.021-38.613 133.419-97.92 174.123-173.824l78.848 32.683c-50.176 97.536-128.128 172.928-220.203 220.373l-32.768-79.232zM920.661 571.136c24.917-82.475 23.424-167.851-0.213-246.101l79.189-32.853c16 49.963 24.32 102.443 24.32 155.648 0 51.84-7.936 104.405-24.448 155.989l-78.848-32.683zM887.808 246.144c-38.613-72.021-97.92-133.419-173.824-174.165l32.683-78.891c97.536 50.176 172.971 128.171 220.331 220.245l-79.189 32.811zM635.093 39.339c-82.517-24.917-167.851-23.467-246.101 0.213l-32.853-79.232c50.005-15.957 102.485-24.32 155.733-24.32 51.84 0 104.32 7.936 155.861 24.405l-32.64 78.933z" />
<glyph unicode="&#xe952;" glyph-name="check-mark-bold_13" d="M1024 692.139l-476.16-542.805-291.84 256 56.277 63.573 227.883-199.936 420.907 477.696 62.933-54.528zM56.277 468.907l291.627-256.427-56.064-63.147-291.84 256 56.277 63.573zM452.139 459.605l252.629 287.061 63.232-54.827-252.629-288.256-63.232 56.021z" />
<glyph unicode="&#xe953;" glyph-name="speech-bubble-bold35" d="M1024 917.333v-724.523h-554.667l-298.667-214.187v214.187h-170.667v724.523h1024zM938.667 277.333v554.624h-853.333v-554.624h170.667v-132.48l185.899 132.48h496.768zM768 691.84l-282.539-329.173-186.795 164.352 56.277 63.531 122.837-107.477 227.285 263.595 62.933-54.827z" />
<glyph unicode="&#xe954;" glyph-name="checkbox-bold_04" d="M428.416 234.667l-192 184.277 59.52 61.227 131.413-125.312 299.563 306.475 60.672-60.117-359.168-366.549zM682.667 960v-85.333h-341.333v85.333h341.333zM682.667-64v85.333h-341.333v-85.333h341.333zM768 874.667h170.667v-170.667h85.333v256h-256v-85.333zM0 277.333h85.333v341.333h-85.333v-341.333zM85.333 704v170.667h170.667v85.333h-256v-256h85.333zM1024 618.667h-85.333v-341.333h85.333v341.333zM938.667 192v-170.667h-170.667v-85.333h256v256h-85.333zM256 21.333h-170.667v170.667h-85.333v-256h256v85.333z" />
<glyph unicode="&#xe955;" glyph-name="checkbox-bold_11" d="M341.333 960v-85.333h341.333v85.333h-341.333zM341.333-64v85.333h341.333v-85.333h-341.333zM768 960h256v-256h-85.333v170.667h-170.667v85.333zM0 618.667h85.333v-341.333h-85.333v341.333zM0 704v256h256v-85.333h-170.667v-170.667h-85.333zM1024 277.333h-85.333v341.333h85.333v-341.333zM1024 192v-256h-256v85.333h170.667v170.667h85.333zM256-64h-256v256h85.333v-170.667h170.667v-85.333zM768 254.379l-195.925 194.048 193.963 195.712-60.416 59.861-193.92-195.797-195.755 193.835-59.947-59.947 195.968-194.219-194.005-195.925 59.947-59.947 194.347 196.096 195.883-194.133 59.861 60.416z" />
<glyph unicode="&#xe956;" glyph-name="checkbox-bold_18" d="M768 254.379l-195.925 194.048 193.963 195.712-60.416 59.861-193.92-195.797-195.755 193.835-59.947-59.947 195.968-194.219-194.005-195.925 59.947-59.947 194.347 196.096 195.883-194.133 59.861 60.416zM57.045 682.624c47.36 92.075 122.795 170.027 220.331 220.245l32.683-78.848c-75.947-40.747-135.253-102.144-173.909-174.208l-79.104 32.811zM310.144 72.192c-72.064 38.613-133.419 97.92-174.165 173.867l-78.848-32.64c50.133-97.579 128.128-173.013 220.245-220.459l32.768 79.232zM103.339 324.907c-24.917 82.475-23.424 167.808 0.213 246.059l-79.232 32.811c-15.957-49.963-24.32-102.443-24.32-155.648 0-51.84 7.936-104.363 24.448-155.904l78.891 32.683zM356.267 935.552l32.683-78.891c82.475 24.917 167.851 23.424 246.059-0.213l32.853 79.189c-50.048 16-102.485 24.363-155.691 24.363-51.84 0-104.32-7.979-155.904-24.448zM713.856 823.765c72.021-38.613 133.419-97.92 174.123-173.824l78.848 32.683c-50.176 97.536-128.128 172.928-220.203 220.373l-32.768-79.232zM920.661 571.093c24.917-82.475 23.424-167.851-0.213-246.101l79.189-32.853c16 49.963 24.32 102.443 24.32 155.648 0 51.84-7.936 104.405-24.448 155.989l-78.848-32.683zM887.808 246.144c-38.613-72.021-97.92-133.419-173.824-174.165l32.683-78.891c97.536 50.176 172.971 128.171 220.331 220.245l-79.189 32.811zM635.093 39.339c-82.517-24.917-167.851-23.467-246.101 0.213l-32.853-79.232c50.005-15.957 102.485-24.32 155.733-24.32 51.84 0 104.32 7.936 155.861 24.405l-32.64 78.933z" />
<glyph unicode="&#xe957;" glyph-name="checkbox-fill_05" d="M512 960c-282.752 0-512-229.248-512-512s229.248-512 512-512 512 229.248 512 512-229.248 512-512 512zM708.139 193.963l-195.883 194.133-194.347-196.096-59.947 59.947 194.005 195.925-195.968 194.219 59.947 59.947 195.755-193.835 193.92 195.797 60.416-59.861-193.963-195.712 195.925-194.048-59.861-60.416z" />
<glyph unicode="&#xe958;" glyph-name="checkbox-fill_06" d="M0 960v-1024h1024v1024h-1024zM469.333 234.667l-213.333 226.091 59.691 61.013 152.491-159.403 280.405 298.965 62.080-59.861-341.333-366.805z" />
<glyph unicode="&#xe959;" glyph-name="speech-bubble-fill34" d="M1024 917.333h-1024v-724.523h170.667v-214.187l298.667 214.187h554.667v724.523zM768 691.84l-282.539-329.173-186.795 164.352 56.277 63.531 122.837-107.477 227.285 263.595 62.933-54.827z" />
<glyph unicode="&#xe95a;" glyph-name="checkbox-fill_02" d="M810.667 960h-597.333c-117.845 0-213.333-95.531-213.333-213.333v-597.333c0-117.803 95.488-213.333 213.333-213.333h597.333c117.845 0 213.333 95.531 213.333 213.333v597.333c0 117.803-95.488 213.333-213.333 213.333zM428.416 234.667l-192 184.277 59.52 61.227 131.413-125.312 299.563 306.475 60.672-60.117-359.168-366.549z" />
<glyph unicode="&#xe95b;" glyph-name="checkbox-fill_03" d="M0 960v-1024h1024v1024h-1024zM708.139 193.963l-195.883 194.133-194.347-196.096-59.947 59.947 194.005 195.925-195.968 194.219 59.947 59.947 195.755-193.835 193.92 195.797 60.416-59.861-193.963-195.712 195.925-194.048-59.861-60.416z" />
<glyph unicode="&#xe95c;" glyph-name="checkbox-fill_01" d="M0 960v-1024h1024v1024h-1024zM428.416 234.667l-192 184.277 59.52 61.227 131.413-125.312 299.563 306.475 60.672-60.117-359.168-366.549z" />
<glyph unicode="&#xe95d;" glyph-name="check-mark-fill16" d="M512 960c-282.752 0-512-229.248-512-512s229.248-512 512-512 512 229.248 512 512-229.248 512-512 512zM469.333 234.667l-213.333 226.091 59.691 61.013 152.491-159.403 280.405 298.965 62.080-59.861-341.333-366.805z" />
<glyph unicode="&#xe95e;" glyph-name="check-mark-bold_11" d="M384 21.333l-426.667 452.181 119.381 121.984 305.024-318.848 560.811 598.016 124.117-119.723z" />
<glyph unicode="&#xe95f;" glyph-name="check-mark-bold_05" d="M0 443.051l87.595 80.939c102.443-49.579 167.424-87.253 282.539-169.344 216.448 245.632 359.509 370.261 625.365 535.68l28.501-65.536c-219.264-191.317-379.819-404.437-611.029-819.115-142.635 167.936-237.824 275.029-412.971 437.376z" />
<glyph unicode="&#xe960;" glyph-name="check-mark-bold_02" d="M384 62.507l-384 368.555 119.083 122.453 262.656-250.624 520.96 530.603 121.301-120.192z" />
<glyph unicode="&#xe961;" glyph-name="check-mark-fill7" d="M512 960c-282.752 0-512-229.248-512-512s229.248-512 512-512 512 229.248 512 512-229.248 512-512 512zM458.667 255.232l-192 184.277 59.563 61.227 131.328-125.312 260.48 265.301 60.629-60.117-320-325.376z" />
<glyph unicode="&#xe962;" glyph-name="checkbox-fill_04" d="M512 960c-282.752 0-512-229.248-512-512s229.248-512 512-512 512 229.248 512 512-229.248 512-512 512zM428.416 234.667l-192 184.277 59.52 61.227 131.413-125.312 299.563 306.475 60.672-60.117-359.168-366.549z" />
<glyph unicode="&#xe963;" glyph-name="check-mark-bold_06" d="M0 468.395l67.328 69.376 329.984-197.077 568.96 534.443 57.728-57.771-597.333-795.563z" />
<glyph unicode="&#xe964;" glyph-name="check-mark-bold_07" d="M0 474.197l49.92 51.456c83.243-22.272 226.688-73.856 355.413-153.472 135.467 178.219 408.832 400.981 574.123 502.485l44.544-45.781-597.333-807.552-426.667 452.864z" />
<glyph unicode="&#xe965;" glyph-name="check-mark-bold_08" d="M0 490.667c117.803-24.533 269.312-72.021 384-146.688 134.699 180.48 376.661 349.312 640 488.021-250.069-246.4-457.003-525.995-597.333-807.125-113.109 160.683-236.672 310.229-426.667 465.792z" />
<glyph unicode="&#xe966;" glyph-name="check-mark-fill_01" d="M512 960c-282.752 0-512-229.248-512-512s229.248-512 512-512 512 229.248 512 512-229.248 512-512 512zM458.667 222.208l-192 186.197 79.232 79.275 112.768-106.923 240.768 246.784 79.232-79.232-320-326.101z" />
<glyph unicode="&#xe967;" glyph-name="check-mark-fill6" d="M995.584 449.707c-30.421 30.976-37.205 78.037-16.768 116.352 14.592 27.307 15.616 59.776 2.731 87.979-12.843 28.16-38.101 48.725-68.309 55.552-42.283 9.6-73.472 45.525-76.928 88.789-2.517 30.848-19.243 58.795-45.312 75.52-25.984 16.768-58.325 20.395-87.467 9.771-40.789-14.805-86.443-1.365-112.725 33.109-18.773 24.576-47.957 39.040-78.933 39.040-30.933 0-60.117-14.464-78.891-39.040-26.155-34.517-71.808-47.957-112.597-33.152-29.099 10.581-61.44 6.955-87.467-9.771s-42.795-44.672-45.269-75.52c-3.499-43.264-34.645-79.232-76.928-88.789-30.208-6.827-55.467-27.392-68.309-55.552s-11.819-60.672 2.773-87.936c20.437-38.272 13.653-85.376-16.725-116.352-21.717-22.059-31.872-52.992-27.477-83.627s22.869-57.472 49.92-72.533c37.888-21.12 57.685-64.427 48.811-106.88-6.272-30.293 1.877-61.781 22.144-85.163 20.309-23.424 50.347-36.011 81.152-34.048 43.349 2.688 83.328-23.040 98.859-63.531 11.051-28.928 34.987-50.987 64.725-59.691 29.653-8.704 61.739-3.072 86.656 15.232 34.944 25.728 82.603 25.728 117.504 0 24.917-18.347 57.003-23.979 86.656-15.232 29.739 8.704 53.675 30.805 64.768 59.691 15.488 40.491 55.509 66.261 98.816 63.531 30.891-1.963 60.885 10.624 81.152 34.048 20.267 23.381 28.459 54.869 22.144 85.163-8.832 42.453 10.923 85.76 48.853 106.88 27.008 15.104 45.44 41.899 49.877 72.533s-5.76 61.568-27.435 83.627zM458.667 218.027l-192 186.197 79.232 79.232 112.768-106.923 240.768 246.784 79.232-79.232-320-326.059z" />
<glyph unicode="&#xe968;" glyph-name="check-mark-bold_01" d="M865.493 874.667l-481.493-493.525-225.536 213.803-158.464-158.549 384-372.395 640 652.16z" />
<glyph unicode="&#xe969;" glyph-name="checkbox-bold_08" d="M428.416 234.667l-192 184.277 59.52 61.227 131.413-125.312 299.563 306.475 60.672-60.117-359.168-366.549zM682.667-64v85.333h-341.333v-85.333h341.333zM682.667 960v-85.333h-341.333v85.333h341.333zM768 960h42.667c117.845 0 213.333-95.531 213.333-213.333v-42.667h-85.333v42.667c0 70.571-57.429 128-128 128h-42.667v85.333zM1024 277.333h-85.333v341.333h85.333v-341.333zM256-64h-42.667c-117.845 0-213.333 95.531-213.333 213.333v42.667h85.333v-42.667c0-70.571 57.429-128 128-128h42.667v-85.333zM1024 192v-42.667c0-117.803-95.488-213.333-213.333-213.333h-42.667v85.333h42.667c70.571 0 128 57.429 128 128v42.667h85.333zM0 704v42.667c0 117.803 95.488 213.333 213.333 213.333h42.667v-85.333h-42.667c-70.571 0-128-57.429-128-128v-42.667h-85.333zM0 618.667h85.333v-341.333h-85.333v341.333z" />
<glyph unicode="&#xe96a;" glyph-name="cart-thin_01" d="M576 64c-11.776 0-21.333 9.557-21.333 21.333s9.557 21.333 21.333 21.333 21.333-9.557 21.333-21.333-9.557-21.333-21.333-21.333zM576 149.333c-35.328 0-64-28.672-64-64s28.672-64 64-64 64 28.672 64 64-28.672 64-64 64zM320 64c-11.776 0-21.333 9.557-21.333 21.333s9.557 21.333 21.333 21.333 21.333-9.557 21.333-21.333-9.557-21.333-21.333-21.333zM320 149.333c-35.328 0-64-28.672-64-64s28.672-64 64-64 64 28.672 64 64-28.672 64-64 64zM1024 832h-126.464l-155.392-640h-568.363l-173.781 554.795h832.939l31.061 127.872h160v-42.667zM60.544 704.128l144.768-469.461h503.211l114.091 469.461h-762.069z" />
<glyph unicode="&#xe96b;" glyph-name="pin-fill_13" d="M341.333 234.667h85.333v-213.333l-85.333-85.333v298.667zM426.667 725.333c0 98.944 52.011 185.6 130.005 234.667h-386.005c2.901-81.536 103.637-89.472 103.637-213.333 0-160.896-146.304-140.416-146.304-426.667h512c0 57.941-6.187 102.912-15.744 139.776-114.261 34.261-197.589 140.117-197.589 265.557zM704 917.333c-106.069 0-192-85.973-192-192s85.931-192 192-192c105.984 0 192 85.973 192 192s-86.016 192-192 192zM683.989 640.683l-72.021 69.845 29.653 29.739 42.325-40.107 90.24 92.544 29.739-29.696-119.936-122.325z" />
<glyph unicode="&#xe96c;" glyph-name="pin-fill_16" d="M512 960c-141.355 0-256-114.645-256-256 0-126.805 92.331-231.808 213.333-252.16v-345.173h85.333v345.131c121.003 20.352 213.333 125.355 213.333 252.16 0 141.397-114.645 256.043-256 256.043zM481.835 767.659c-23.424-27.733-60.715-34.133-83.328-14.208s-22.016 58.539 1.451 86.272c23.381 27.733 60.672 34.091 83.285 14.208 22.613-19.925 21.973-58.539-1.408-86.272zM853.333 106.667c0-94.251-152.789-170.667-341.333-170.667s-341.333 76.416-341.333 170.667c0 71.595 88.277 132.821 213.333 158.165v-87.552l-18.603-4.523c-72.32-20.949-107.349-43.648-107.349-66.091s34.987-45.141 107.349-66.048c89.088-25.728 203.819-25.813 293.291 0.043 72.789 21.035 106.496 43.819 106.965 66.005-0.469 22.187-34.176 44.971-106.965 66.005l-18.688 4.565v87.552c125.056-25.301 213.333-86.528 213.333-158.123z" />
<glyph unicode="&#xe96d;" glyph-name="pin-fill_18" d="M512 960c-141.355 0-256-114.645-256-256 0-126.805 92.331-231.808 213.333-252.16v-345.173h85.333v345.131c121.003 20.352 213.333 125.355 213.333 252.16 0 141.397-114.645 256.043-256 256.043zM481.835 767.659c-23.424-27.733-60.715-34.133-83.328-14.208s-22.016 58.539 1.451 86.272c23.381 27.733 60.672 34.091 83.285 14.208 22.613-19.925 21.973-58.539-1.408-86.272zM853.333 277.333h-213.333v-85.333h160.597l21.333-42.667h-181.931v-50.133l33.408-77.867h-319.488l30.080 70.101v57.899h-87.125l-43.136 42.667h130.261v85.333h-213.333l-170.667-341.333h1024l-170.667 341.333zM307.456 21.333h-169.387l75.264 150.528 64.683-65.195h66.091l-36.651-85.333zM683.264 106.667h160l42.667-85.333h-166.059l-36.608 85.333z" />
<glyph unicode="&#xe96e;" glyph-name="pin-fill_14" d="M341.333 234.667h85.333v-213.333l-85.333-85.333v298.667zM426.667 725.333c0 98.944 52.011 185.6 130.005 234.667h-386.005c2.901-81.536 103.637-89.472 103.637-213.333 0-160.896-146.304-140.416-146.304-426.667h512c0 57.941-6.187 102.912-15.744 139.776-114.261 34.261-197.589 140.117-197.589 265.557zM896 725.333c0-106.027-86.059-192-192-192s-192 85.973-192 192 86.059 192 192 192 192-85.973 192-192zM764.331 815.872l-60.331-60.331-60.331 60.331-30.165-30.208 60.331-60.331-60.331-60.331 30.165-30.208 60.331 60.373 60.331-60.331 30.208 30.208-60.331 60.288 60.331 60.331-30.208 30.208z" />
<glyph unicode="&#xe96f;" glyph-name="pin-fill_12" d="M341.333 234.667h85.333v-213.333l-85.333-85.333v298.667zM426.667 725.333c0 98.944 52.011 185.6 130.005 234.667h-386.005c2.901-81.536 103.637-89.472 103.637-213.333 0-160.896-146.304-140.416-146.304-426.667h512c0 57.941-6.187 102.912-15.744 139.776-114.261 34.261-197.589 140.117-197.589 265.557zM896 725.333c0-106.027-86.101-192-192-192-105.984 0-192 85.973-192 192s86.016 192 192 192c105.899 0 192-85.973 192-192zM810.667 746.667h-85.333v85.333h-42.667v-85.333h-85.333v-42.667h85.333v-85.333h42.667v85.333h85.333v42.667z" />
<glyph unicode="&#xe970;" glyph-name="pin-fill_17" d="M512 960c-141.355 0-256-114.645-256-256 0-126.805 92.331-231.808 213.333-252.16v-345.173h85.333v345.131c121.003 20.352 213.333 125.355 213.333 252.16 0 141.397-114.645 256.043-256 256.043zM481.835 767.659c-23.424-27.733-60.715-34.133-83.328-14.208s-22.016 58.539 1.451 86.272c23.381 27.733 60.672 34.091 83.285 14.208 22.613-19.925 21.973-58.539-1.408-86.272zM1024-64h-1024l170.667 341.333h213.333v-85.333h-160.597l-85.333-170.667h747.819l-85.333 170.667h-160.555v85.333h213.333l170.667-341.333z" />
<glyph unicode="&#xe971;" glyph-name="pin-fill_19" d="M512 960c-141.355 0-256-114.645-256-256 0-126.805 92.331-231.808 213.333-252.16v-259.84h85.333v259.797c121.003 20.352 213.333 125.355 213.333 252.16 0 141.397-114.645 256.043-256 256.043zM481.835 767.659c-23.424-27.733-60.715-34.133-83.328-14.208s-22.016 58.539 1.451 86.272c23.381 27.733 60.672 34.091 83.285 14.208 22.613-19.925 21.973-58.539-1.408-86.272zM1024-64l-286.165 103.552-225.835-103.552-238.123 103.552-273.877-103.552 170.667 384 213.333 84.437v-90.667l-149.419-60.16-73.6-165.547 114.005 43.093 64.256 114.645-27.093-129.877 178.731-76.331 21.12 86.272 19.84-86.357 177.067 80.64-26.368 129.408 67.072-123.563 116.565-42.197-74.197 169.728-151.979 60.373v90.539l216.064-84.437 167.936-384z" />
<glyph unicode="&#xe972;" glyph-name="pin-fill_07" d="M512 960c-134.315 0-256-108.928-256-243.285 0-134.315 111.019-294.699 256-524.715 144.981 230.016 256 390.4 256 524.715 0 134.357-121.643 243.285-256 243.285zM512 618.667c-47.147 0-85.333 38.187-85.333 85.333s38.187 85.333 85.333 85.333 85.333-38.187 85.333-85.333-38.187-85.333-85.333-85.333zM853.333 106.667c0-94.251-152.789-170.667-341.333-170.667s-341.333 76.416-341.333 170.667c0 68.352 80.555 127.147 196.608 154.411l49.237-77.824c-17.109-2.901-34.389-5.76-50.261-10.325-141.312-40.491-147.328-89.984-0.896-132.352 89.088-25.728 203.819-25.813 293.291 0.043 154.411 44.672 134.997 97.067-11.435 135.125-12.629 3.285-26.496 5.035-39.936 7.296l49.323 77.995c116.181-27.221 196.736-86.016 196.736-154.368z" />
<glyph unicode="&#xe973;" glyph-name="pin-fill_08" d="M512 917.333c-134.315 0-256-108.928-256-243.285 0-134.315 111.019-294.699 256-524.715 144.981 230.016 256 390.4 256 524.715 0 134.357-121.643 243.285-256 243.285zM512 576c-47.147 0-85.333 38.187-85.333 85.333s38.187 85.333 85.333 85.333 85.333-38.187 85.333-85.333-38.187-85.333-85.333-85.333zM1024-21.333h-1024l170.667 341.333h133.76c16.427-27.349 34.048-55.851 52.565-85.333h-133.589l-85.333-170.667h747.819l-85.333 170.667h-133.589c18.56 29.483 36.181 57.984 52.565 85.333h133.803l170.667-341.333z" />
<glyph unicode="&#xe974;" glyph-name="pin-fill_20" d="M263.083 237.099l59.733-59.733-197.205-198.699h-125.611l263.083 258.432zM765.184 493.611c99.072 99.072 191.232 19.499 258.816 82.389l-341.333 341.333c-62.891-67.584 6.059-149.077-93.013-248.192-128.683-128.683-207.403 26.667-436.395-202.325l409.6-409.6c228.992 228.992 73.6 307.669 202.325 436.395z" />
<glyph unicode="&#xe975;" glyph-name="pin-fill_15" d="M768 704c0 141.397-114.645 256-256 256s-256-114.603-256-256c0-126.805 92.331-231.808 213.333-252.16v-515.84l85.333 85.333v430.507c121.003 20.352 213.333 125.355 213.333 252.16zM398.507 753.451c-22.613 19.925-22.016 58.539 1.451 86.315 23.381 27.733 60.672 34.091 83.285 14.208s21.973-58.539-1.408-86.229c-23.424-27.819-60.715-34.176-83.328-14.293z" />
<glyph unicode="&#xe976;" glyph-name="pin-fill_11" d="M469.333 234.667h85.333v-213.333l-85.333-85.333v298.667zM621.696 746.667c0 123.861 100.693 131.797 103.637 213.333h-426.667c2.901-81.536 103.637-89.472 103.637-213.333 0-160.896-146.304-140.416-146.304-426.667h512c0 286.251-146.304 265.771-146.304 426.667z" />
<glyph unicode="&#xe977;" glyph-name="pin-fill_09" d="M512 917.333c-134.315 0-256-108.928-256-243.285 0-134.315 111.019-294.699 256-524.715 144.981 230.016 256 390.4 256 524.715 0 134.357-121.643 243.285-256 243.285zM512 576c-47.147 0-85.333 38.187-85.333 85.333s38.187 85.333 85.333 85.333 85.333-38.187 85.333-85.333-38.187-85.333-85.333-85.333zM853.333 320h-133.76c-16.427-27.349-34.048-55.851-52.565-85.333h133.589l21.333-42.667h-181.931l-14.677-23.211-12.331-19.456h23.808l36.608-85.333h-319.488l36.608 85.333h20.437l-12.331 19.456-14.635 23.211h-87.125l-43.136 42.667h103.253c-18.56 29.483-36.181 57.984-52.565 85.333h-133.76l-170.667-341.333h1024l-170.667 341.333zM307.456 64h-169.387l75.264 150.528 64.683-65.195h66.091l-36.651-85.333zM683.264 149.333h160l42.667-85.333h-166.059l-36.608 85.333z" />
<glyph unicode="&#xe978;" glyph-name="pin-fill_06" d="M512 960c-134.315 0-256-108.928-256-243.285 0-134.315 111.019-294.699 256-524.715 144.981 230.016 256 390.4 256 524.715 0 134.357-121.643 243.285-256 243.285zM512 618.667c-47.147 0-85.333 38.187-85.333 85.333s38.187 85.333 85.333 85.333 85.333-38.187 85.333-85.333-38.187-85.333-85.333-85.333zM682.667 0c0-35.328-76.373-64-170.667-64s-170.667 28.672-170.667 64 76.373 64 170.667 64 170.667-28.672 170.667-64z" />
<glyph unicode="&#xe979;" glyph-name="pin-fill_02" d="M512 960c-179.115 0-341.333-145.195-341.333-324.352 0-266.368 272.085-294.528 341.333-699.648 69.248 405.12 341.333 433.28 341.333 699.648 0 179.157-162.176 324.352-341.333 324.352zM512 490.667c-70.699 0-128 57.301-128 128s57.259 128 128 128 128-57.301 128-128-57.301-128-128-128z" />
<glyph unicode="&#xe97a;" glyph-name="pin-fill_01" d="M512 960c-179.115 0-341.333-145.195-341.333-324.352 0-179.115 148.011-392.96 341.333-699.648 193.323 306.688 341.333 520.533 341.333 699.648 0 179.157-162.176 324.352-341.333 324.352zM512 490.667c-70.699 0-128 57.301-128 128s57.301 128 128 128 128-57.301 128-128-57.301-128-128-128z" />
<glyph unicode="&#xe97b;" glyph-name="pin-bold_1" d="M768 704c0-126.805-92.331-231.808-213.333-252.16v-259.84h-85.333v259.797c-121.003 20.352-213.333 125.355-213.333 252.203 0 141.397 114.645 256 256 256s256-114.645 256-256zM682.667 704c0 94.123-76.544 170.667-170.667 170.667s-170.667-76.544-170.667-170.667 76.544-170.667 170.667-170.667 170.667 76.544 170.667 170.667zM442.965 614.485c99.797-78.507 237.355 30.805 164.608 150.997 13.355-95.445-83.456-171.947-164.608-150.997zM1024-64l-286.165 103.552-225.835-103.552-238.123 103.552-273.877-103.552 170.667 384 213.333 84.437v-90.667l-149.419-60.16-73.6-165.547 114.005 43.093 64.256 114.645-27.093-129.877 178.731-76.331 21.12 86.272 19.84-86.357 177.067 80.64-26.368 129.408 67.072-123.563 116.565-42.197-74.197 169.728-151.979 60.373v90.539l216.064-84.437 167.936-384z" />
<glyph unicode="&#xe97c;" glyph-name="pin-fill_05" d="M512 960c-235.605 0-426.667-187.52-426.667-418.773 0-234.88 186.667-395.435 426.667-605.227 240 209.792 426.667 370.347 426.667 605.227 0 231.253-191.061 418.773-426.667 418.773zM512 192c-188.544 0-341.333 152.832-341.333 341.333s152.789 341.333 341.333 341.333 341.333-152.832 341.333-341.333-152.789-341.333-341.333-341.333zM682.667 533.333v-170.667h-128v85.333h-85.333v-85.333h-128v170.667h-42.667l213.333 213.333 213.333-213.333h-42.667zM640 661.333l-42.667 42.283v43.051h42.667v-85.333z" />
<glyph unicode="&#xe97d;" glyph-name="pin-bold_02" d="M512 874.667c90.923 0 170.667-73.813 170.667-157.952 0-87.467-73.131-210.816-170.667-365.269-97.536 154.453-170.667 277.803-170.667 365.269 0 84.139 79.744 157.952 170.667 157.952zM512 960c-134.315 0-256-108.928-256-243.285 0-134.315 111.019-294.699 256-524.715 144.981 230.016 256 390.4 256 524.715 0 134.357-121.643 243.285-256 243.285zM512 618.667c-47.147 0-85.333 38.187-85.333 85.333s38.187 85.333 85.333 85.333 85.333-38.187 85.333-85.333-38.187-85.333-85.333-85.333zM682.667 0c0-35.328-76.373-64-170.667-64s-170.667 28.672-170.667 64 76.373 64 170.667 64 170.667-28.672 170.667-64z" />
<glyph unicode="&#xe97e;" glyph-name="pin-fill_04" d="M512 960c-235.605 0-426.667-187.52-426.667-418.773 0-234.88 186.667-395.435 426.667-605.227 240 209.792 426.667 370.347 426.667 605.227 0 231.253-191.061 418.773-426.667 418.773zM512 192c-188.544 0-341.333 152.832-341.333 341.333s152.789 341.333 341.333 341.333 341.333-152.832 341.333-341.333-152.789-341.333-341.333-341.333zM425.003 405.077c24.064 76.459 39.68 99.968 47.701 123.179 11.648 33.621-9.045 48.555-74.197-8.917l-14.507 27.307c74.368 81.109 227.584 99.456 175.488-26.197-32.597-78.464-25.856-63.317-39.168-104.192-19.413-59.563 29.568-35.413 77.568 9.003 6.571-10.709 8.661-14.165 15.232-26.453-106.624-101.632-224.896-110.592-188.117 6.272zM597.333 660.48c-22.656-19.371-56.32-18.944-75.136 0.939s-15.659 51.627 6.997 70.997c22.699 19.371 56.277 18.901 75.136-0.939 18.773-19.84 15.659-51.627-6.997-70.997z" />
<glyph unicode="&#xe97f;" glyph-name="pin-fill_10" d="M479.531 651.221c-0.171 0.384-12.288 0.725-10.24 3.328l5.845 3.627c0.555 3.285 3.072 6.912-0.299 12.971l2.005 5.333-4.267-1.237s6.016 25.856 14.080 14.165l-3.413-3.968c5.205-5.205 6.613-18.176 8.32-26.581 4.907-2.56 12.544-3.029 3.755-7.467 4.523 0.768-23.936-12.203-27.648-6.869-2.773 3.243 12.288 5.419 11.861 6.699zM449.024 658.005c-3.285-3.328 0.128-5.461 3.499-4.011 4.864 2.133 11.477 2.048 12.117 8.619l3.115 3.883-4.309 5.76c-2.56 0.512-4.267-2.731-5.845-4.053l-2.816-0.725-2.645-3.413 0.299-1.877-3.413-4.181zM747.691 266.88l-31.275 51.456-30.891 50.603c-31.147 50.944-59.221 97.109-83.669 140.629l-2.987-2.859c-16.043-6.656-40.192 21.717-57.131 22.656 8.192-1.28 0.768 20.907 0.768 22.357-6.528 8.064-47.915-0.896-58.795-2.347-20.437-2.688-41.771-2.432-57.429-15.147-11.008-8.96-11.179-23.509-22.357-30.549-7.253-4.523-15.189-3.072-21.419-8.917-11.008-10.453-23.595-25.899-29.739-39.637-2.645-5.76 3.285-19.541 1.835-26.965-14.336-45.355 3.627-108.288 58.667-115.243 13.312-1.664 27.221-8.917 40.747-4.864 10.752 3.243 20.224 10.581 31.787 11.435 16.085 1.067 9.387-22.571 31.445-16.171 10.709 3.157 15.573-7.339 15.573-15.317-3.584-16.683-11.435-25.984 3.755-37.675 10.325-8.021 18.859-19.456 20.736-33.28 1.109-7.765 8.363-21.077-0.64-25.685-6.357-3.2-11.051-21.632-10.965-27.691 1.323-7.040 15.573-20.523 19.883-26.496 6.229-8.533 1.664-18.603 6.741-28.288 5.205-9.899 10.112-17.493 13.781-27.52 4.736-13.824 40.875 0.299 49.323 0.256 28.715-0.171 43.264 40.277 63.445 52.693 11.392 7.040 8.192 26.283 21.76 36.181 12.629 9.173 25.941 14.677 27.136 31.616 0.896 14.677-11.051 45.312-4.437 57.728l4.352 7.040zM436.181 597.973c1.749-7.339-5.077-27.52-6.571-33.92-1.323-5.888 18.859-9.643 17.707-12.587 0.171 0.341 27.392 9.387 30.080 11.733l6.144 13.781c5.163 3.456 10.581 6.229 16.384 8.363l6.997 12.16c2.389 0.896 30.293 5.248 32.256 4.309 7.040-3.2 20.011-16.597 24.875-22.656l1.749-1.365c-13.909 28.587-25.173 56.064-33.963 82.859l-3.541-1.536c-9.472 0-22.528-10.709-28.288-17.28-4.053-4.437-28.544-14.379-31.232-14.080 14.080-1.493 13.397-11.776 12.288-20.565-2.901-20.309-46.763-1.493-44.885-9.216zM901.419 382.549c-11.819-205.099-181.461-367.915-389.547-367.915-111.061 0-211.243 46.336-282.368 120.747-8.448 8.875-14.763 29.867-0.853 38.4l14.123 3.627c11.051 9.387-10.325 47.403-1.877 53.504 26.325 18.816 13.824 41.899-2.347 60.971-6.869 8.107-44.501 46.933-48.768 39.979 3.157 10.624-6.827 36.267-12.885 46.379-10.197 16.981-23.595 27.435-28.971 46.123-2.133 7.424-2.133 30.037-6.528 35.243-1.749 2.133-15.275 7.893-14.805 10.965 13.013 77.653 48.939 147.541 100.864 202.709l35.029 14.080c21.973 32.981 23.253 7.381 43.008 16 6.571 0 14.123 27.051 21.163 31.317 12.331 7.893 2.901 7.893 0.64 11.52-4.779 7.851 102.869 47.061 104.661 40.021 1.451-5.973-53.291-34.517-47.275-33.621-13.909-1.835-16.555-26.752-13.995-26.667 6.955 0.213 50.432 33.024 70.699 26.027 19.883-6.869 55.509 15.787 69.419 27.307l1.707 1.621c1.237 32.469 8.32 63.744 20.523 92.672l-21.035 1.109c-259.2 0-469.333-210.133-469.333-469.333s210.133-469.333 469.333-469.333c259.157 0 469.333 210.133 469.333 469.333 0 32.597-3.328 64.384-9.685 95.104-20.949-36.864-44.544-75.904-70.229-117.888zM981.333 770.816c0-104.533-83.243-229.248-192-408.149-108.757 178.901-192 303.616-192 408.149 0 104.491 91.264 189.184 192 189.184s192-84.693 192-189.184zM864 768c0 41.216-33.451 74.667-74.667 74.667s-74.667-33.451-74.667-74.667 33.451-74.667 74.667-74.667 74.667 33.451 74.667 74.667z" />
<glyph unicode="&#xe980;" glyph-name="pin-fill_03" d="M512 960c-179.115 0-341.333-145.195-341.333-324.352 0-179.115 148.011-392.96 341.333-699.648 193.323 306.688 341.333 520.533 341.333 699.648 0 179.157-162.176 324.352-341.333 324.352zM512 362.667c-141.397 0-256 114.603-256 256s114.603 256 256 256 256-114.603 256-256-114.603-256-256-256z" />
<glyph unicode="&#xe981;" glyph-name="pin-bold_01" d="M512 874.667c136.363 0 256-111.701 256-239.019 0-131.968-106.368-304.299-256-540.203-149.632 235.904-256 408.235-256 540.203 0 127.317 119.637 239.019 256 239.019zM512 960c-179.115 0-341.333-145.195-341.333-324.352 0-179.115 148.011-392.96 341.333-699.648 193.323 306.688 341.333 520.533 341.333 699.648 0 179.157-162.176 324.352-341.333 324.352zM512 490.667c-70.699 0-128 57.301-128 128s57.301 128 128 128 128-57.301 128-128-57.301-128-128-128z" />
<glyph unicode="&#xe982;" glyph-name="pin-thin_01" d="M512 533.333c-47.104 0-85.333 38.229-85.333 85.333s38.229 85.333 85.333 85.333 85.333-38.229 85.333-85.333-38.229-85.333-85.333-85.333zM512 746.667c-70.699 0-128-57.301-128-128s57.301-128 128-128 128 57.301 128 128-57.301 128-128 128zM213.333 635.648c0 150.059 139.563 281.685 298.667 281.685s298.667-131.627 298.667-281.685c0-147.413-109.355-321.835-298.667-619.819-191.531 301.781-298.667 472.405-298.667 619.819zM512 960c-179.115 0-341.333-145.195-341.333-324.352 0-179.115 148.011-392.96 341.333-699.648 193.323 306.688 341.333 520.533 341.333 699.648 0 179.157-162.176 324.352-341.333 324.352z" />
<glyph unicode="&#xe983;" glyph-name="map-bold_05" d="M768 960c-134.315 0-256-108.928-256-243.285 0-199.765 204.075-220.885 256-524.715 51.925 303.829 256 324.949 256 524.715 0 134.357-121.685 243.285-256 243.285zM768 618.667c-47.147 0-85.333 38.187-85.333 85.333s38.187 85.333 85.333 85.333 85.333-38.187 85.333-85.333-38.187-85.333-85.333-85.333zM256 746.667c-89.557 0-170.667-72.619-170.667-162.176 0-133.163 136.021-147.243 170.667-349.824 34.645 202.581 170.667 216.661 170.667 349.824 0 89.557-81.109 162.176-170.667 162.176zM256 519.125c-31.445 0-56.875 25.472-56.875 56.875s25.429 56.875 56.875 56.875 56.875-25.429 56.875-56.875-25.429-56.875-56.875-56.875zM512 272.725l-137.173 45.995c15.573 27.051 33.152 48.128 53.163 71.979l84.011-28.032 81.92 27.307c16.555-22.229 32.171-46.635 46.123-74.667l-128.043-42.581zM1024-64l-286.165 103.552-225.835-103.552-238.123 103.552-273.877-103.552 154.453 347.477c12.757-32.427 23.637-75.776 25.429-152.875l-18.901-42.496 115.157 43.563 205.184-89.216 32.043 158.933 30.635-156.8 190.037 87.125 132.224-47.829-19.669 45.013c1.109 16.725 2.901 33.28 5.589 48.811 6.144 35.84 14.72 66.731 24.96 94.379l146.859-336.085z" />
<glyph unicode="&#xe984;" glyph-name="map-bold_04" d="M512 960c-134.315 0-256-108.928-256-243.285 0-199.765 204.075-220.885 256-524.715 51.925 303.829 256 324.949 256 524.715 0 134.357-121.643 243.285-256 243.285zM512 618.667c-47.147 0-85.333 38.187-85.333 85.333s38.187 85.333 85.333 85.333 85.333-38.187 85.333-85.333-38.187-85.333-85.333-85.333zM1024-64l-286.165 103.552-225.835-103.552-238.123 103.552-273.877-103.552 170.667 384 168.96 67.584c16.213-22.016 31.616-46.080 45.269-73.771l-150.315-60.16-73.6-165.547 114.005 43.093 64.256 114.645-27.093-129.877 178.731-76.331 21.12 86.229 19.84-86.357 177.067 80.64-26.368 129.408 67.072-123.563 116.565-42.197-74.197 169.728-152.789 60.373c13.611 27.733 29.056 51.84 45.312 73.856l171.563-67.755 167.936-384z" />
<glyph unicode="&#xe985;" glyph-name="map-bold_01" d="M1022.336 600.363c-35.456-41.899-68.864-81.835-83.669-161.067v-285.141l-170.667-105.771v390.869c-8.789 47.104-24.149 80.427-42.667 108.331v-489.6l-170.667 123.093v557.611l67.285-48.555c-14.464 29.909-24.619 64.768-24.619 107.691l0.811 14.72-86.144 62.123-236.587-170.667-275.413 170.667v-768l275.413-170.667 236.587 170.667 236.587-170.667 275.413 170.667v495.701l-1.664-2.005zM256 48.427l-170.667 105.771v567.211l170.667-105.771v-567.211zM469.333 181.12l-170.667-123.093v557.525l170.667 123.136v-557.568zM853.333 960c-89.6 0-170.667-72.619-170.667-162.176 0-133.163 136.021-147.243 170.667-349.824 34.645 202.581 170.667 216.661 170.667 349.824 0 89.557-81.067 162.176-170.667 162.176zM853.333 725.333c-35.328 0-64 28.629-64 64s28.672 64 64 64 64-28.629 64-64-28.672-64-64-64z" />
<glyph unicode="&#xe986;" glyph-name="map-bold_06" d="M280.32 387.84c-15.915 0-31.616 2.816-46.635 8.32l17.365 47.147c9.429-3.456 19.243-5.205 29.269-5.205 11.093 0 21.931 2.133 32.171 6.315l19.072-46.507c-16.299-6.699-33.536-10.069-51.243-10.069zM650.24 421.248l-70.784 40.32 24.875 43.691 70.827-40.32-24.917-43.691zM374.827 422.101l-25.813 43.136 69.931 41.856 25.813-43.136-69.931-41.856zM541.995 482.176c-10.368 4.309-21.333 6.528-32.597 6.528-9.813 0-19.499-1.707-28.757-5.077l-17.109 47.275c14.763 5.333 30.208 8.021 45.867 8.064 17.92 0 35.413-3.499 51.925-10.411l-19.328-46.379zM169.344 489.131c-22.827 0-41.344-18.475-41.344-41.301s18.517-41.301 41.344-41.301c22.827 0 41.344 18.517 41.344 41.301-0.043 22.827-18.517 41.301-41.344 41.301zM748.587 789.333l-236.587 170.667-236.587-170.667-275.413 170.667v-853.333l275.413-170.667 236.587 170.667 236.587-170.667 275.413 170.667v853.333l-275.413-170.667zM938.667 154.155l-170.667-105.771v186.283h-42.667v-176.683l-170.667 123.093v181.589h-85.333v-181.547l-170.667-123.093v219.307h-42.667v-228.907l-170.667 105.771v652.544l170.667-105.771v-124.971h42.667v124.885l170.667 123.136v-162.688h85.333v162.688l170.667-123.136v-82.219h42.667v82.304l170.667 105.771v-652.587zM882.005 361.984l-55.296 54.357 54.315 55.168-30.208 29.952-54.272-55.253-55.211 54.272-29.995-29.952 55.296-54.443-54.315-55.296 29.995-29.995 54.485 55.381 55.253-54.4 29.952 30.208z" />
<glyph unicode="&#xe987;" glyph-name="map-bold_03" d="M1024-3.669l-120.448 120.448c22.443 33.792 35.669 74.24 35.669 117.888 0 117.845-95.488 213.333-213.333 213.333s-213.333-95.488-213.333-213.333 95.488-213.333 213.333-213.333c43.349 0 83.499 13.099 117.163 35.285l120.619-120.619 60.331 60.331zM597.888 234.667c0 70.571 57.429 128 128 128s128-57.429 128-128-57.429-128-128-128-128 57.429-128 128zM427.221 234.667l0.085 1.451-128.64-92.8v557.568l170.667 123.136v-437.205c21.675 36.437 50.731 67.883 85.333 92.203v345.003l170.667-123.136v-167.552h0.555c14.336 0 28.331-1.365 42.112-3.328v170.965l170.667 105.771v-362.837c50.688-51.541 82.603-121.344 85.333-198.528v714.624l-275.413-170.667-236.587 170.667-236.587-170.667-275.413 170.667v-768l275.413-170.667 166.827 120.32c-9.643 29.312-15.019 60.544-15.019 93.013zM256 133.76l-170.667 105.771v567.211l170.667-105.771v-567.211z" />
<glyph unicode="&#xe988;" glyph-name="map-bold_02" d="M746.325 301.568c-18.475 0-36.48 3.712-53.461 11.051l19.925 46.165c10.667-4.565 21.931-6.912 33.536-6.912 9.472 0 18.816 1.579 27.776 4.693l16.555-47.445c-14.251-5.035-29.141-7.552-44.331-7.552zM280.32 302.507c-15.915 0-31.616 2.816-46.635 8.32l17.365 47.147c9.429-3.456 19.243-5.205 29.269-5.205 11.093 0 21.931 2.133 32.171 6.315l19.072-46.507c-16.299-6.699-33.536-10.069-51.243-10.069zM650.24 335.915l-70.784 40.32 24.875 43.691 70.827-40.32-24.917-43.691zM374.827 336.768l-25.813 43.136 69.931 41.856 25.813-43.136-69.931-41.856zM541.995 396.843c-10.368 4.309-21.333 6.528-32.597 6.528-9.813 0-19.499-1.707-28.757-5.077l-17.109 47.275c14.763 5.333 30.208 8.021 45.867 8.021 17.92 0 35.413-3.499 51.925-10.411l-19.328-46.336zM854.613 403.797c-22.784 0-41.301-18.475-41.301-41.301s18.517-41.301 41.301-41.301c22.827 0 41.344 18.517 41.344 41.301 0 22.827-18.517 41.301-41.344 41.301zM169.344 403.797c-22.827 0-41.344-18.475-41.344-41.301s18.517-41.301 41.344-41.301 41.344 18.517 41.344 41.301c0 22.827-18.517 41.301-41.344 41.301zM938.667 439.296v-285.141l-170.667-105.771v186.283h-42.667v-176.683l-170.667 123.093v138.923h-85.333v-138.88l-170.667-123.093v176.64h-42.667v-186.24l-170.667 105.771v567.211l170.667-105.771v-167.637h42.667v167.552l170.667 123.136v-205.355h85.333v205.355l67.285-48.555c-14.464 29.909-24.619 64.768-24.619 107.691l0.811 14.72-86.144 62.123-236.587-170.667-275.413 170.667v-768l275.413-170.667 236.587 170.667 236.587-170.667 275.413 170.667v495.701l-1.664-2.005c-35.456-41.899-68.864-81.835-83.669-161.067zM1024 797.824c0 89.557-81.067 162.176-170.667 162.176s-170.667-72.619-170.667-162.176c0-133.163 136.021-147.243 170.667-349.824 34.645 202.581 170.667 216.661 170.667 349.824zM789.333 789.333c0 35.371 28.672 64 64 64s64-28.629 64-64-28.672-64-64-64-64 28.629-64 64zM765.952 448c-9.045 42.325-23.339 73.557-40.619 99.584v-99.584h40.619z" />
<glyph unicode="&#xe989;" glyph-name="map-thin_01" d="M1024 106.667l-275.413-170.667-236.587 170.667-236.587-170.667-275.413 170.667v853.333l275.413-170.667 236.587 170.667 236.587-170.667 275.413 170.667v-853.333zM533.333 661.333h-42.667v230.656l-192-138.496v-177.493h-42.667v175.189l-213.333 132.181v-752.939l213.333-132.224v279.125h42.667v-271.957l192 138.496v218.795h42.667v-218.795l192-138.496v229.291h42.667v-236.459l213.333 132.224v752.939l-213.333-132.181v-132.523h-42.667v134.827l-192 138.496v-230.656zM882.005 361.984l-55.296 54.357 54.315 55.168-30.208 29.952-54.272-55.211-55.211 54.229-29.995-29.952 55.296-54.443-54.315-55.296 29.995-29.995 54.485 55.381 55.253-54.4 29.952 30.208zM280.32 387.84c-15.915 0-31.616 2.816-46.592 8.32l17.365 47.147c9.429-3.456 19.243-5.205 29.227-5.205 11.093 0 21.931 2.133 32.171 6.357l19.115-46.507c-16.341-6.699-33.579-10.112-51.285-10.112zM169.344 489.131c-22.827 0-41.344-18.475-41.344-41.301 0-22.784 18.517-41.301 41.344-41.301s41.344 18.517 41.344 41.301c0 22.827-18.517 41.301-41.344 41.301zM650.24 421.248l-70.784 40.32 24.875 43.691 70.827-40.32-24.917-43.691zM374.827 422.101l-25.813 43.136 69.888 41.856 25.856-43.093-69.931-41.899zM541.995 482.176c-10.368 4.309-21.333 6.528-32.555 6.528-9.856 0-19.499-1.707-28.757-5.035l-17.152 47.275c14.763 5.333 30.208 8.021 45.909 8.021 17.877 0 35.413-3.499 51.883-10.368l-19.328-46.421z" />
<glyph unicode="&#xe98a;" glyph-name="building-bold_04" d="M42.667-64v85.333h85.333v170.667h-85.333l85.163 170.667h0.171v597.333h768v-597.333h0.171l85.163-170.667h-85.333v-170.667h85.333v-85.333h-938.667zM213.333-21.333h170.667v170.667h-170.667v-170.667zM810.667 149.333h-170.667v-170.667h170.667v170.667zM597.333 149.333h-170.667v-170.667h170.667v170.667zM869.803 320h-715.605l-42.667-85.333h800.939l-42.667 85.333zM298.667 533.333h-85.333v-85.333h85.333v85.333zM640 533.333h-85.333v-85.333h85.333v85.333zM469.333 533.333h-85.333v-85.333h85.333v85.333zM810.667 533.333h-85.333v-85.333h85.333v85.333zM298.667 704h-85.333v-85.333h85.333v85.333zM640 704h-85.333v-85.333h85.333v85.333zM469.333 704h-85.333v-85.333h85.333v85.333zM810.667 704h-85.333v-85.333h85.333v85.333zM298.667 874.667h-85.333v-85.333h85.333v85.333zM640 874.667h-85.333v-85.333h85.333v85.333zM469.333 874.667h-85.333v-85.333h85.333v85.333zM810.667 874.667h-85.333v-85.333h85.333v85.333z" />
<glyph unicode="&#xe98b;" glyph-name="home-fill_01" d="M256-21.333h-128v426.667l383.616 341.547 384.384-341.547v-426.667h-128v384h-512v-384zM298.667 64h426.667v-85.333h-426.667v85.333zM298.667 192h426.667v-85.333h-426.667v85.333zM725.333 320v-85.333h-426.667v85.333h426.667zM512 918.571l512-454.869-56.661-63.701-455.339 404.523-455.339-404.523-56.661 63.701 512 454.869z" />
<glyph unicode="&#xe98c;" glyph-name="home-fill_03" d="M85.333 277.333v-256l-85.333 0.597v341.12l213.248 170.539 100.651-105.856 325.035 276.395 299.733-249.813v-432.981h-127.616v256h-171.051v-256h-298.283v256h-256.384zM298.667 64v-42.667h-170.283v42.667h170.283zM128.384 149.333h170.283v-42.667h-170.283v42.667zM555.051 277.333h-85.717v-128h85.717v128zM128.384 234.667h170.283v-42.667h-170.283v42.667zM639.744 874.667l384.256-327.253-56.661-63.701-327.595 276.864-322.944-275.456-60.885 62.507 383.829 327.040z" />
<glyph unicode="&#xe98d;" glyph-name="building-fill_05" d="M469.333 832v128h170.667v-85.333h-128v-42.667h213.333v-128h128v-85.333h128v-597.333h42.667v-85.333h-1024v85.333h42.667v597.333h128v85.333h128v128h170.667zM682.667-21.333v256l-170.667 99.669-170.667-99.669v-256h85.333v213.333l85.333 42.667 85.333-42.667v-213.333h85.333zM896 106.667v85.333h-85.333v-85.333h85.333zM213.333 106.667v85.333h-85.333v-85.333h85.333zM896 277.333v85.333h-85.333v-85.333h85.333zM213.333 277.333v85.333h-85.333v-85.333h85.333zM512 704c70.656 0 128-57.344 128-128s-57.344-128-128-128-128 57.344-128 128 57.344 128 128 128zM896 448v85.333h-85.333v-85.333h85.333zM213.333 448v85.333h-85.333v-85.333h85.333zM512 576h85.333v-42.667h-128v128h42.667v-85.333z" />
<glyph unicode="&#xe98e;" glyph-name="building-fill_06" d="M1024-64h-1024v85.333h42.667v554.667c76.501 51.669 148.651 91.861 218.283 120.576 22.784-117.035 127.872-207.531 254.336-205.909 124.331 1.579 226.731 92.459 248.064 207.147 69.803-28.8 141.824-69.419 217.984-121.813v-554.667h42.667v-85.333zM426.667-21.333h170.667v170.667h-170.667v-170.667zM213.333-21.333h170.667v170.667h-170.667v-170.667zM640-21.333h170.667v170.667h-170.667v-170.667zM213.333 234.667h85.333v85.333h-85.333v-85.333zM384 234.667h85.333v85.333h-85.333v-85.333zM554.667 234.667h85.333v85.333h-85.333v-85.333zM725.333 234.667h85.333v85.333h-85.333v-85.333zM213.333 362.667h85.333v85.333h-85.333v-85.333zM384 362.667h85.333v85.333h-85.333v-85.333zM554.667 362.667h85.333v85.333h-85.333v-85.333zM725.333 362.667h85.333v85.333h-85.333v-85.333zM512 960c117.76 0 213.333-95.573 213.333-213.333s-95.573-213.333-213.333-213.333-213.333 95.573-213.333 213.333 95.573 213.333 213.333 213.333zM554.667 874.667h-85.333v-85.333h-85.333v-85.333h85.333v-85.333h85.333v85.333h85.333v85.333h-85.333v85.333z" />
<glyph unicode="&#xe98f;" glyph-name="home-fill_04" d="M384 106.667h-128v-128h-170.667v374.016l243.115 209.963 73.003-59.051 281.216 243.072 256-223.403v-544.597h-213.333v170.667h-128v-170.667h-213.333v128zM298.667 320h-85.333v-85.333h85.333v85.333zM426.667 320h-85.333v-85.333h85.333v85.333zM640 362.667h-85.333v-85.333h85.333v85.333zM768 362.667h-85.333v-85.333h85.333v85.333zM399.275 672.128l283.392 245.205 341.333-298.667-56.704-63.787-284.629 248.277-282.624-244.821-71.595 60.331-271.744-234.453-56.704 63.787 328.448 284.843 70.827-60.715zM640 490.667h-85.333v-85.333h85.333v85.333zM768 490.667h-85.333v-85.333h85.333v85.333z" />
<glyph unicode="&#xe990;" glyph-name="school-fill_01" d="M938.667 21.333h42.667v-85.333h-938.667v85.333h42.667v341.333h853.333v-341.333zM640 234.667h-256v-256h85.333v213.333h85.333v-213.333h85.333v256zM256 106.667h-85.333v-85.333h85.333v85.333zM853.333 106.667h-85.333v-85.333h85.333v85.333zM256 277.333h-85.333v-85.333h85.333v85.333zM853.333 277.333h-85.333v-85.333h85.333v85.333zM1024 405.333h-1024l128 298.667h168.235l-110.976-95.104 28.16-32.896 255.915 219.435v164.565h213.333l-42.667-63.616 42.667-64.384h-170.667l298.624-256 28.203 32.896-111.019 95.104h168.192l128-298.667zM512 682.667c58.88 0 106.667-47.787 106.667-106.667s-47.787-106.667-106.667-106.667-106.667 47.787-106.667 106.667 47.787 106.667 106.667 106.667zM512 576h42.667v-34.133h-75.221v76.8h32.555v-42.667z" />
<glyph unicode="&#xe991;" glyph-name="home-fill_02" d="M256-21.333h-128v234.069c-77.952 22.101-128 95.573-128 170.155 0 24.96 5.504 50.005 17.365 73.216-13.781 70.869 28.032 142.677 100.523 165.589l0.768 0.213c32.981 47.019 87.765 77.909 150.827 80.981l241.749 214.443 512.768-454.869-56.747-63.701-456.021 404.565-139.691-123.947c13.013-6.912 25.216-15.275 36.224-25.131l103.040 91.392 385.109-340.864v-426.112h-127.915v298.667h-213.333l-0.341-298.667h-255.659v258.603c23.296 5.333 44.117 19.755 56.192 44.544 89.429-33.536 159.829 96.981 77.653 151.979 45.781 52.779 8.021 117.205-51.541 107.733-28.715 101.717-178.261 101.717-206.976 0-55.893 10.027-97.92-46.677-59.093-97.749-70.571-58.88-6.912-174.251 79.872-148.181 9.131-31.573 33.877-51.2 61.227-58.112v-258.816zM275.243 434.261c63.701 43.648 138.325-32.768 98.261-94.976 0.085 62.848-36.395 97.365-98.261 94.976zM184.832 383.445c-28.501 42.752-14.507 100.949 30.080 126.635 25.131 14.421 56.747 15.744 83.328 2.987 45.227-21.632-117.035 28.928-113.408-129.621z" />
<glyph unicode="&#xe992;" glyph-name="building-fill_03" d="M1024-64h-981.333v682.667h256v341.333h469.333v-512h256v-512zM512 149.333h-128v-170.667h128v170.667zM682.667 149.333h-128v-170.667h128v170.667zM938.667 149.333h-85.333v-170.667h85.333v170.667zM213.333 149.333h-85.333v-170.667h85.333v170.667zM682.667 362.667h-85.333v-85.333h85.333v85.333zM469.333 362.667h-85.333v-85.333h85.333v85.333zM938.667 362.667h-85.333v-85.333h85.333v85.333zM213.333 362.667h-85.333v-85.333h85.333v85.333zM682.667 533.333h-85.333v-85.333h85.333v85.333zM469.333 533.333h-85.333v-85.333h85.333v85.333zM213.333 533.333h-85.333v-85.333h85.333v85.333zM682.667 704h-85.333v-85.333h85.333v85.333zM469.333 704h-85.333v-85.333h85.333v85.333zM682.667 874.667h-85.333v-85.333h85.333v85.333zM469.333 874.667h-85.333v-85.333h85.333v85.333z" />
<glyph unicode="&#xe993;" glyph-name="building-fill_02" d="M1024-64h-938.667v1024h597.333v-341.333h341.333v-682.667zM341.333 149.333h-128v-170.667h128v170.667zM554.667 149.333h-128v-170.667h128v170.667zM896 149.333h-128v-170.667h128v170.667zM256 362.667h-85.333v-85.333h85.333v85.333zM597.333 362.667h-85.333v-85.333h85.333v85.333zM426.667 362.667h-85.333v-85.333h85.333v85.333zM810.667 362.667h-85.333v-85.333h85.333v85.333zM938.667 362.667h-85.333v-85.333h85.333v85.333zM256 533.333h-85.333v-85.333h85.333v85.333zM597.333 533.333h-85.333v-85.333h85.333v85.333zM426.667 533.333h-85.333v-85.333h85.333v85.333zM810.667 533.333h-85.333v-85.333h85.333v85.333zM938.667 533.333h-85.333v-85.333h85.333v85.333zM256 704h-85.333v-85.333h85.333v85.333zM597.333 704h-85.333v-85.333h85.333v85.333zM426.667 704h-85.333v-85.333h85.333v85.333zM256 874.667h-85.333v-85.333h85.333v85.333zM597.333 874.667h-85.333v-85.333h85.333v85.333zM426.667 874.667h-85.333v-85.333h85.333v85.333z" />
<glyph unicode="&#xe994;" glyph-name="building-fill_04" d="M1024-64h-1024v768h213.333v-384l298.667 256v-158.037l-77.995-65.237 27.392-32.725 143.659 120.192 162.944 135.808v-158.421l-77.483-64.853 27.349-32.725 196.352 164.267-0.128 0.171 109.909 91.563v-640zM256 192h-85.333v-128h85.333v128zM682.667 192h-85.333v-128h85.333v128zM469.333 192h-85.333v-128h85.333v128zM896 192h-85.333v-128h85.333v128zM128 746.667h-42.667c8.448 93.099 76.16 170.667 149.333 170.667 10.496 0 20.395-2.517 29.141-6.997 13.483 29.312 43.136 49.664 77.525 49.664s64.043-20.352 77.525-49.664c8.747 4.48 18.645 6.997 29.141 6.997 35.328 0 64-28.672 64-64s-28.672-64-64-64c-10.496 0-20.395 2.517-29.141 6.997-13.483-29.312-43.136-49.664-77.525-49.664-100.053 0-158.805 125.909-213.333 0z" />
<glyph unicode="&#xe995;" glyph-name="building-fill_07" d="M554.667 874.667h85.333v-85.333h42.667v-810.667h42.667v640l256-128v-512h42.667v-42.667h-1024v42.667h42.667v469.333h298.667v-469.333h42.667v810.667h42.667v85.333h85.333v85.333h42.667v-85.333zM896-21.333v85.333h-85.333v-85.333h85.333zM256-21.333v85.333h-128v-85.333h128zM597.333-21.333v85.333h-128v-85.333h128zM512 149.333v554.667h-42.667v-554.667h42.667zM896 149.333v42.667h-85.333v-42.667h85.333zM128 149.333v85.333h-42.667v-85.333h42.667zM298.667 149.333v85.333h-42.667v-85.333h42.667zM213.333 149.333v85.333h-42.667v-85.333h42.667zM597.333 149.333v554.667h-42.667v-554.667h42.667zM896 234.667v42.667h-85.333v-42.667h85.333zM128 277.333v85.333h-42.667v-85.333h42.667zM213.333 277.333v85.333h-42.667v-85.333h42.667zM298.667 277.333v85.333h-42.667v-85.333h42.667zM896 320v42.667h-85.333v-42.667h85.333zM896 411.264v42.667h-85.333v-42.667h85.333z" />
<glyph unicode="&#xe996;" glyph-name="building-fill_01" d="M42.667 21.333h85.333v938.667h768v-938.667h85.333v-85.333h-938.667v85.333zM341.333 149.333v-170.667h128v170.667h-128zM554.667 149.333v-170.667h128v170.667h-128zM298.667 362.667h-85.333v-85.333h85.333v85.333zM640 362.667h-85.333v-85.333h85.333v85.333zM469.333 362.667h-85.333v-85.333h85.333v85.333zM810.667 362.667h-85.333v-85.333h85.333v85.333zM298.667 533.333h-85.333v-85.333h85.333v85.333zM640 533.333h-85.333v-85.333h85.333v85.333zM469.333 533.333h-85.333v-85.333h85.333v85.333zM810.667 533.333h-85.333v-85.333h85.333v85.333zM298.667 704h-85.333v-85.333h85.333v85.333zM640 704h-85.333v-85.333h85.333v85.333zM469.333 704h-85.333v-85.333h85.333v85.333zM810.667 704h-85.333v-85.333h85.333v85.333zM298.667 874.667h-85.333v-85.333h85.333v85.333zM640 874.667h-85.333v-85.333h85.333v85.333zM469.333 874.667h-85.333v-85.333h85.333v85.333zM810.667 874.667h-85.333v-85.333h85.333v85.333z" />
<glyph unicode="&#xe997;" glyph-name="home-fill_05" d="M128 327.339v-391.339h768v391.339l-384 357.333-384-357.333zM597.333 21.333h-170.667v256h170.667v-256zM1024 441.685l-58.069-62.507-453.931 421.675-453.931-421.035-58.069 62.507 512 475.008 512-475.648z" />
<glyph unicode="&#xe998;" glyph-name="home-fill_07" d="M853.333 657.365l-128 128v89.301h128v-217.301zM1024 405.333h-128v-426.667h-768v426.667h-128l512 512 512-512zM597.333 320h-170.667v-256h170.667v256z" />
<glyph unicode="&#xe999;" glyph-name="home-fill_06" d="M896 405.333v-426.667h-256v256h-256v-256h-256v426.667h-128l512 512 512-512h-128zM853.333 657.365v217.301h-128v-89.301l128-128z" />
<glyph unicode="&#xe99a;" glyph-name="home-bold_01" d="M554.667-21.333l-425.941 0.597v425.771l382.891 341.12c47.957-42.624 96-85.248 144.128-127.915l96.213-85.291c48.085-42.624 96.085-84.992 144.043-127.616v-426.667l-255.701 0.597-0.299 212.736h-85.333v-213.333zM810.667 64l0.811 303.829-299.861 264.235-298.283-265.301v-302.763h256v213.333h256v-213.333h85.333zM384 277.333v-128h-85.333v128h85.333zM512 917.333l512-454.571-56.661-63.744-455.339 404.821-455.339-404.821-56.661 63.744 512 454.571z" />
</font>
</defs>
</svg>
